DarkMachine.pl - Forum wielotematyczne

Wróć   DarkMachine.pl - Forum wielotematyczne » Giełda Download » Filmy » Filmy 3D


Filmy 3D filmy, bajki i animacje w trójwymiarze


Polecamy na forum


 
Wersja językowa Narzędzia wątku

Przeglądasz temat: Strażnicy marzeń / Rise of the Guardians (2012)
Sprawdź też: Koko smoko / Der Kleine Drache Kokosnuss (2014) | Królowa Śniegu 2 / Snezhnaya Koroleva 2 / Snow Queen 2 (2014)
Tagi do tematu: 2012, guardians, marzeń, rise, strażnicy
Poleć ten temat na:
 
 
        
  
Stare 01-03-2013, 13:08   #1
Motylek
VIP


 
Awatar Motylek
 
Info o Motylek
Dołączył: Aug 2011
Postów: 18,662

Podziękowano:
100 razy

Domyślnie Strażnicy marzeń / Rise of the Guardians (2012)

Strażnicy marzeń / Rise of the Guardians (2012) 1080p.Bluray.H-SBS.X264-zman


Strażnicy marzeń / Rise of the Guardians (2012)

gatunek: Animacja, Familijny, Komedia, Przygodowy
produkcja: USA
premiera: 4 stycznia 2013 (Polska) 10 października 2012 (świat)
reżyseria: Peter Ramsey
scenariusz: David Lindsay-Abaire

Jack Mróz - urwisowaty chłopak władający chłodem, zostaje zwerbowany przez swojego stwórcę do drużyny Strażników, która troszczy się o dobro dzieci na całym świecie. Kiedy siły zła zagrożą pięknu snów najmłodszych i ich bezpieczeństwu wraz z Zębową Wróżką, Piaskowym Dziadkiem, Zającem Wielkanocnym i drużyną Świętego Mikołaja ruszy do walki o wiarę w symbole świąt i uszczęśliwiających wierzeń. Będzie to dla chłopca lekcja dojrzałości odpowiadająca na najważniejsze pytania.

Spoiler:
Strażnicy marzeń / Rise of the Guardians (2012)

Strażnicy marzeń / Rise of the Guardians (2012)

Strażnicy marzeń / Rise of the Guardians (2012)

Strażnicy marzeń / Rise of the Guardians (2012)



Strażnicy marzeń / Rise of the Guardians (2012) 1080p.Bluray.H-SBS.X264-zman

Original Title.......: Rise of the Guardians
Type.................: 3D Blu-ray Half Side By Side Encode
Encoder..............: zman
Audio1...............: English 5.1 DTS @ 1510 Kbps
Audio2...............: French 5.1 AC3 @ 640 Kbps
Audio3...............: Spanish 5.1 AC3 @ 640 Kbps
Subtitles............: english,french,spanish (sup, sub/idx)
Genre................: Animation | Adventure | Family
Format...............: MKV
MKV Size.............: 8.92 GiB
Video Bitrate........: 10.1 Mbps ( crf18 )
Length...............: 1h 37mn
Codec................: X264
Resolution...........: 1080P
FPS..................: 23.976
Original Format......: 3D Bluray


Treść widoczna tylko dla użytkowników forum DarkMachine. Zaloguj się lub załóż darmowe konto na forum aby uzyskać dostęp bez limitów.




Ostatnio edytowane przez ChrisGarver ; 26-12-2013 o 12:41
Motylek jest teraz aktywny  
Stare 17-03-2013, 12:25   #2
Motylek
VIP


 
Awatar Motylek
 
Info o Motylek
Dołączył: Aug 2011
Postów: 18,662

Podziękowano:
100 razy

Domyślnie

Upload za zgodą LEON 345

Strażnicy marzeń 3D / Rise of the Guardians (2012) mini-HD.1080p.Over-Under.DualAudio.AC3.BluRay.x264-LEON 345 | Napisy i Dubbing PL [Kino]

Spoiler:
General
Format : Matroska
Format version : Version 2
File size : 3.96 GiB
Duration : 1h 37mn
Overall bit rate : 5 840 Kbps
Movie name : Rise_of_the_Guardians_3D_Title0.BlurayRip by Leon 345
Encoded date : UTC 2013-03-15 18:30:58
Writing application : mkvmerge v5.7.0 ('The Whirlwind') built on Jul 8 2012 20:08:51
Writing library : libebml v1.2.3 + libmatroska v1.3.0

Video
ID : 1
Format : AVC
Format/Info : Advanced Video Codec
Format profile : High@L4.1
Format settings, CABAC : Yes
Format settings, ReFrames : 2 frames
Codec ID : V_MPEG4/ISO/AVC
Duration : 1h 37mn
Bit rate : 5 212 Kbps
Width : 1 920 pixels
Height : 1 080 pixels
Display aspect ratio : 16:9 (1.78:1)
Frame rate mode : Constant
Frame rate : 23.976 fps
Color space : YUV
Chroma subsampling : 4:2:0
Bit depth : 8 bits
Scan type : Progressive
Bits/(Pixel*Frame) : 0.105
Stream size : 3.54 GiB (89%)
Title : Rip by Leon 345
Writing library : x264 core
Default : Yes
Forced : No
Color primaries : BT.709
Transfer characteristics : BT.709
Matrix coefficients : BT.709

Audio #1
ID : 2
Format : AC-3
Format/Info : Audio Coding 3
Mode extension : CM (complete main)
Format settings, Endianness : Big
Codec ID : A_AC3
Duration : 1h 37mn
Bit rate mode : Constant
Bit rate : 128 Kbps
Channel(s) : 2 channels
Channel positions : Front: L R
Sampling rate : 48.0 KHz
Bit depth : 16 bits
Compression mode : Lossy
Stream size : 89.0 MiB (2%)
Title : AC3 2.0 Dubbing PL - KINO !!!!!!!!!!!!!!
================================================== ====
Language : Polish
Default : Yes
Forced : Yes

Audio #2
ID : 3
Format : AC-3
Format/Info : Audio Coding 3
Mode extension : CM (complete main)
Format settings, Endianness : Big
Codec ID : A_AC3
Duration : 1h 37mn
Bit rate mode : Constant
Bit rate : 384 Kbps
Channel(s) : 6 channels
Channel positions : Front: L C R, Side: L R, LFE
Sampling rate : 48.0 KHz
Bit depth : 16 bits
Compression mode : Lossy
Stream size : 267 MiB (7%)
Title : AC3 5.1 Orginal
Language : English
Default : No
Forced : No

Text
ID : 4
Format : UTF-8
Codec ID : S_TEXT/UTF8
Codec ID/Info : UTF-8 Plain Text
Default : Yes
Forced : Yes

Source [thx]:
A/V- Rise Of The Guardians 2012 3D BluRay MVC TrueHD 7 1 3DT
Polski Dubbing - KiNO - MAFiA





Treść widoczna tylko dla użytkowników forum DarkMachine. Zaloguj się lub załóż darmowe konto na forum aby uzyskać dostęp bez limitów.




Ostatnio edytowane przez ChrisGarver ; 26-12-2013 o 12:42
Motylek jest teraz aktywny  
Stare 22-03-2013, 10:25   #3
BAYER35
Friend
 
Awatar BAYER35
 
Info o BAYER35
Dołączył: Nov 2010
Wiek: 37
Postów: 4,919

Podziękowano:
6 razy

Domyślnie

Strażnicy Marzeń 3D (SBS) / Rise of the Guardians (2012)

mini-HD.x264.1080p.Side.by.Side-HOOLIMAN / Dubbing PL


Kopia mini-HD 1080p = tylko 3,73 GB

Spoiler:

Strażnicy marzeń / Rise of the Guardians (2012)

Strażnicy marzeń / Rise of the Guardians (2012)




Dane techniczne :
Spoiler:

Format : Matroska (MKV)
Rozmiar pliku : 3,73 GB
Czas trwania : 1h 37 min.
Rodzaj całkowitej przepływności bitów : Zmienna
Całkowita przepływność bitów : 5.499 Kb/s

Wideo:

Format : AVC
Profil formatu : High@L5.1
Czas trwania : 1h 37 min.
Rodzaj przepływności : Zmienna
Przepływność bitów : 4.749 Kb/s
Nominalna przepływaność : 5.000 Kb/s
Szerokość : 1.920 pikseli
Wysokość : 1.080 pikseli
Proporcje obrazu : 16:9
Szybkość wyświetlania klatek : 23,976 kl/s
Rozmiar strumienia : 3,22 GB (86%)

Audio:

Format : AC-3
Czas trwania : 1h 37 min.
Rodzaj przepływności : Stała
Przepływność bitów : 640 Kb/s
Kanały : 6 kanałów
Rozmieszczenie kanałów : Front: L C R, Side: L R, LFE
Częstotliwość próbkowania : 48,0 KHz
BitDepth/String : 16 bitów
Rozmiar strumienia : 445 MB (12%)
Język : Polski

Wielkość Uploadu.....: 3,81 GB
Rodzaj Kompresji.....: rar
Dane Naprawcze.......: 2 %
Zawartość Uploadu....: .mkv
Wersja Językowa......: Dubbing PL
Hasło................: Brak



Party 990 MB / Można pobierać na przemian / Bez hasła


Treść widoczna tylko dla użytkowników forum DarkMachine. Zaloguj się lub załóż darmowe konto na forum aby uzyskać dostęp bez limitów.




Ostatnio edytowane przez ChrisGarver ; 26-12-2013 o 12:43
BAYER35 jest nieaktywny  
Stare 25-03-2013, 09:02   #4
Motylek
VIP


 
Awatar Motylek
 
Info o Motylek
Dołączył: Aug 2011
Postów: 18,662

Podziękowano:
100 razy

Domyślnie

Upload za zgodą LEON 345

Strażnicy marzeń 3D / Rise of the Guardians (2012) mini-HD.1080p.Over-Under.AC3.BluRay.x264-LEON 345 |DUBBiNG PL


Spoiler:
General
Format : Matroska
Format version : Version 2
File size : 3.92 GiB
Duration : 1h 37mn
Overall bit rate : 5 776 Kbps
Movie name : Rise_of_the_Guardians_3D_Title0.BlurayRip by Leon 345
Encoded date : UTC 2013-03-21 12:17:05
Writing application : mkvmerge v5.7.0 ('The Whirlwind') built on Jul 8 2012 20:08:51
Writing library : libebml v1.2.3 + libmatroska v1.3.0

Video
ID : 1
Format : AVC
Format/Info : Advanced Video Codec
Format profile : High@L4.1
Format settings, CABAC : Yes
Format settings, ReFrames : 2 frames
Codec ID : V_MPEG4/ISO/AVC
Duration : 1h 37mn
Bit rate : 5 213 Kbps
Width : 1 920 pixels
Height : 1 080 pixels
Display aspect ratio : 16:9 (1.78:1)
Frame rate mode : Constant
Frame rate : 23.976 fps
Color space : YUV
Chroma subsampling : 4:2:0
Bit depth : 8 bits
Scan type : Progressive
Bits/(Pixel*Frame) : 0.105
Stream size : 3.54 GiB (90%)
Title : Rip by Leon 345
Writing library : x264 core
Default : Yes
Forced : No
Color primaries : BT.709
Transfer characteristics : BT.709
Matrix coefficients : BT.709

Audio
ID : 2
Format : AC-3
Format/Info : Audio Coding 3
Mode extension : CM (complete main)
Format settings, Endianness : Big
Codec ID : A_AC3
Duration : 1h 37mn
Bit rate mode : Constant
Bit rate : 448 Kbps
Channel(s) : 6 channels
Channel positions : Front: L C R, Side: L R, LFE
Sampling rate : 48.0 KHz
Bit depth : 16 bits
Compression mode : Lossy
Stream size : 311 MiB (8%)
Title : AC3 5.1 Dubbing PL
Language : Polish
Default : Yes
Forced : No

Text
ID : 3
Format : UTF-8
Codec ID : S_TEXT/UTF8
Codec ID/Info : UTF-8 Plain Text
Default : Yes
Forced : Yes

Source [thx]:
V- Rise Of The Guardians 2012 3D BluRay MVC TrueHD 7 1 3DT
A- BluRay- HDCLUB





Treść widoczna tylko dla użytkowników forum DarkMachine. Zaloguj się lub załóż darmowe konto na forum aby uzyskać dostęp bez limitów.




Dodano nową treść: 10 minutes później:

Strażnicy marzeń 3D / Rise of the Guardians (2012) mini-HD.1080p.Over-Under.AC3.BluRay.x264-LEON 345 |DUBBiNG PL

Strażnicy marzeń / Rise of the Guardians (2012)

gatunek: Animacja, Familijny, Komedia, Przygodowy
produkcja: USA
premiera: 4 stycznia 2013 (Polska) 10 października 2012 (świat)
reżyseria: Peter Ramsey
scenariusz: David Lindsay-Abaire

Jack Mróz - urwisowaty chłopak władający chłodem, zostaje zwerbowany przez swojego stwórcę do drużyny Strażników, która troszczy się o dobro dzieci na całym świecie. Kiedy siły zła zagrożą pięknu snów najmłodszych i ich bezpieczeństwu wraz z Zębową Wróżką, Piaskowym Dziadkiem, Zającem Wielkanocnym i drużyną Świętego Mikołaja ruszy do walki o wiarę w symbole świąt i uszczęśliwiających wierzeń. Będzie to dla chłopca lekcja dojrzałości odpowiadająca na najważniejsze pytania.

Upload za zgodą LEON 345

Strażnicy marzeń 3D / Rise of the Guardians (2012) mini-HD.1080p.Over-Under.AC3.BluRay.x264-LEON 345 |DUBBiNG PL


Spoiler:
General
Format : Matroska
Format version : Version 2
File size : 3.92 GiB
Duration : 1h 37mn
Overall bit rate : 5 776 Kbps
Movie name : Rise_of_the_Guardians_3D_Title0.BlurayRip by Leon 345
Encoded date : UTC 2013-03-21 12:17:05
Writing application : mkvmerge v5.7.0 ('The Whirlwind') built on Jul 8 2012 20:08:51
Writing library : libebml v1.2.3 + libmatroska v1.3.0

Video
ID : 1
Format : AVC
Format/Info : Advanced Video Codec
Format profile : High@L4.1
Format settings, CABAC : Yes
Format settings, ReFrames : 2 frames
Codec ID : V_MPEG4/ISO/AVC
Duration : 1h 37mn
Bit rate : 5 213 Kbps
Width : 1 920 pixels
Height : 1 080 pixels
Display aspect ratio : 16:9 (1.78:1)
Frame rate mode : Constant
Frame rate : 23.976 fps
Color space : YUV
Chroma subsampling : 4:2:0
Bit depth : 8 bits
Scan type : Progressive
Bits/(Pixel*Frame) : 0.105
Stream size : 3.54 GiB (90%)
Title : Rip by Leon 345
Writing library : x264 core
Default : Yes
Forced : No
Color primaries : BT.709
Transfer characteristics : BT.709
Matrix coefficients : BT.709

Audio
ID : 2
Format : AC-3
Format/Info : Audio Coding 3
Mode extension : CM (complete main)
Format settings, Endianness : Big
Codec ID : A_AC3
Duration : 1h 37mn
Bit rate mode : Constant
Bit rate : 448 Kbps
Channel(s) : 6 channels
Channel positions : Front: L C R, Side: L R, LFE
Sampling rate : 48.0 KHz
Bit depth : 16 bits
Compression mode : Lossy
Stream size : 311 MiB (8%)
Title : AC3 5.1 Dubbing PL
Language : Polish
Default : Yes
Forced : No

Text
ID : 3
Format : UTF-8
Codec ID : S_TEXT/UTF8
Codec ID/Info : UTF-8 Plain Text
Default : Yes
Forced : Yes

Source [thx]:
V- Rise Of The Guardians 2012 3D BluRay MVC TrueHD 7 1 3DT
A- BluRay- HDCLUB





Treść widoczna tylko dla użytkowników forum DarkMachine. Zaloguj się lub załóż darmowe konto na forum aby uzyskać dostęp bez limitów.




Ostatnio edytowane przez ChrisGarver ; 26-12-2013 o 12:44
Motylek jest teraz aktywny  
Stare 17-07-2013, 14:05   #5
ChrisGarver
WSRH \m/
 
Awatar ChrisGarver
 
Info o ChrisGarver
Dołączył: May 2009
Skąd: Poznań
Wiek: 27
Postów: 1,074

Podziękowano:
48 razy

Domyślnie


Format : Matroska
File size : 7.46 GiB
Duration : 1h 37mn
Overall bit rate : 11.0 Mbps

Video
ID : 1
Format : AVC
Bit rate : 10.1 Mbps
Width : 1 920 pixels
Height : 1 080 pixels
Display aspect ratio : 16:9
Frame rate : 23.976 fps

Audio Strażnicy marzeń 3D / Rise of the Guardians 3D (2012) 1080p Half SBS [Dubbing PL] BluRay.x264*
ID : 2
Format : AC-3
Bit rate : 640 Kbps
Channel(s) : 6 channels
Language : Polish


Treść widoczna tylko dla użytkowników forum DarkMachine. Zaloguj się lub załóż darmowe konto na forum aby uzyskać dostęp bez limitów.



ChrisGarver jest nieaktywny  
Stare 15-12-2013, 22:31   #6
Motylek
VIP


 
Awatar Motylek
 
Info o Motylek
Dołączył: Aug 2011
Postów: 18,662

Podziękowano:
100 razy

Domyślnie

Strażnicy marzeń 3D / Rise of the Guardians (2012) mini-HD.1080p.BluRay.Over-Under.x264.AC3-LEON 345 | DUBBiNG PL

Spoiler:
General
Format : Matroska
Format version : Version 2
File size : 3.92 GiB
Duration : 1h 37mn
Overall bit rate : 5 776 Kbps
Movie name : Rise_of_the_Guardians_3D_Title0.BlurayRip by Leon 345
Encoded date : UTC 2013-03-21 12:17:05
Writing application : mkvmerge v5.7.0 ('The Whirlwind') built on Jul 8 2012 20:08:51
Writing library : libebml v1.2.3 + libmatroska v1.3.0

Video
ID : 1
Format : AVC
Format/Info : Advanced Video Codec
Format profile : High@L4.1
Format settings, CABAC : Yes
Format settings, ReFrames : 2 frames
Codec ID : V_MPEG4/ISO/AVC
Duration : 1h 37mn
Bit rate : 5 213 Kbps
Width : 1 920 pixels
Height : 1 080 pixels
Display aspect ratio : 16:9 (1.78:1)
Frame rate mode : Constant
Frame rate : 23.976 fps
Color space : YUV
Chroma subsampling : 4:2:0
Bit depth : 8 bits
Scan type : Progressive
Bits/(Pixel*Frame) : 0.105
Stream size : 3.54 GiB (90%)
Title : Rip by Leon 345
Writing library : x264 core
Default : Yes
Forced : No
Color primaries : BT.709
Transfer characteristics : BT.709
Matrix coefficients : BT.709

Audio
ID : 2
Format : AC-3
Format/Info : Audio Coding 3
Mode extension : CM (complete main)
Format settings, Endianness : Big
Codec ID : A_AC3
Duration : 1h 37mn
Bit rate mode : Constant
Bit rate : 448 Kbps
Channel(s) : 6 channels
Channel positions : Front: L C R, Side: L R, LFE
Sampling rate : 48.0 KHz
Bit depth : 16 bits
Compression mode : Lossy
Stream size : 311 MiB (8%)
Title : AC3 5.1 Dubbing PL
Language : Polish
Default : Yes
Forced : No

Text
ID : 3
Format : UTF-8
Codec ID : S_TEXT/UTF8
Codec ID/Info : UTF-8 Plain Text
Default : Yes
Forced : Yes

Source [thx]:
V- Rise Of The Guardians 2012 3D BluRay MVC TrueHD 7 1 3DT
A- BluRay- HDCLUB





Treść widoczna tylko dla użytkowników forum DarkMachine. Zaloguj się lub załóż darmowe konto na forum aby uzyskać dostęp bez limitów.







Strażnicy marzeń / Rise of the Guardians 3D (2012) PL.DUB.1080p.BluRay.Half-SBS.x264-MKR | Dubbing PL

Format : Matroska at 11.0 Mbps
Length : 7.46 GiB for 1h 37mn 11s 456ms

Video #0 : AVC at 10.1 Mbps
Aspect : 1920 x 1080 (1.778) at 23.976 fps

Audio #0 : AC-3 at 640 Kbps
Infos : 6 channels, 48.0 KHz
Language : pl


Treść widoczna tylko dla użytkowników forum DarkMachine. Zaloguj się lub załóż darmowe konto na forum aby uzyskać dostęp bez limitów.




Ostatnio edytowane przez Motylek ; 17-02-2014 o 10:16
Motylek jest teraz aktywny  
Stare 20-11-2015, 21:56   #7
shensik
Szefuncio
 
Awatar shensik
 
Info o shensik
Dołączył: Jan 2013
Skąd: Lubaczow
Wiek: 24
Postów: 1,024

Podziękowano:
1 raz

Domyślnie

Rise.of.The.Guardians.3D.2012.DUB.PL.1080p.BluRay. H.SBS.x264.DTS.AC3-WiZARDS (1).mkv

Spoiler:
Strażnicy marzeń / Rise of the Guardians (2012)



Dane Techniczne


Treść widoczna tylko dla użytkowników forum DarkMachine. Zaloguj się lub załóż darmowe konto na forum aby uzyskać dostęp bez limitów.






Download





Treść widoczna tylko dla użytkowników forum DarkMachine. Zaloguj się lub załóż darmowe konto na forum aby uzyskać dostęp bez limitów.





Treść widoczna tylko dla użytkowników forum DarkMachine. Zaloguj się lub załóż darmowe konto na forum aby uzyskać dostęp bez limitów.





Treść widoczna tylko dla użytkowników forum DarkMachine. Zaloguj się lub załóż darmowe konto na forum aby uzyskać dostęp bez limitów.





Treść widoczna tylko dla użytkowników forum DarkMachine. Zaloguj się lub załóż darmowe konto na forum aby uzyskać dostęp bez limitów.





Haslo


Treść widoczna tylko dla użytkowników forum DarkMachine. Zaloguj się lub załóż darmowe konto na forum aby uzyskać dostęp bez limitów.



shensik jest nieaktywny  
Słowa kluczowe związane z tematem Strażnicy marzeń / Rise of the Guardians (2012): Strażnicy marzeń / Rise of the Guardians (2012) download, Strażnicy marzeń / Rise of the Guardians (2012) peb, Strażnicy marzeń / Rise of the Guardians (2012) do pobrania, Strażnicy marzeń / Rise of the Guardians (2012) chomikuj, Strażnicy marzeń / Rise of the Guardians (2012) za darmo, Strażnicy marzeń / Rise of the Guardians (2012) precyl, Strażnicy marzeń / Rise of the Guardians (2012) do ściągnięcia, Strażnicy marzeń / Rise of the Guardians (2012) free, Strażnicy marzeń / Rise of the Guardians (2012) darkwarez, Strażnicy marzeń / Rise of the Guardians (2012) rar, Strażnicy marzeń / Rise of the Guardians (2012) filestube, Strażnicy marzeń / Rise of the Guardians (2012) warez, Strażnicy marzeń / Rise of the Guardians (2012) portal, Strażnicy marzeń / Rise of the Guardians (2012) bez płacenia, Strażnicy marzeń / Rise of the Guardians (2012) elitewarez, Strażnicy marzeń / Rise of the Guardians (2012) no limits, Strażnicy marzeń / Rise of the Guardians (2012) bez premium, Strażnicy marzeń / Rise of the Guardians (2012) bez limitów, Strażnicy marzeń / Rise of the Guardians (2012) bez konta premium

Podobne wątki do: Strażnicy marzeń / Rise of the Guardians (2012)
Wątek Autor wątku Forum Odpowiedzi Ostatni post / autor
Strażnicy marzeń / Rise of the Guardians (2012) hombbre Filmy HD, DVD, Blu-Ray 17 09-02-2014 13:47
Strażnicy marzeń / Rise of the Guardians (2012) Anonymous90 DMF Bajki 1 15-03-2013 18:54
Strażnicy marzeń 2012 download darkwarez Marrakech Premiery Filmowe 0 25-12-2010 14:03
Strażnicy Przyrody / Guardians of Nature (2005) Santekutaco Dokumentalne 0 17-07-2010 19:02
Strażnicy Przyrody / Guardians of Nature (2005) Santekutaco Filmy HD, DVD, Blu-Ray 2 17-07-2010 18:59

Użytkownicy odwiedzili wątek szukając:
strażnicy marzeń 3d chomikuj, strażnicy marzeń, straznicy mazen 3d turbobit, straznicy marzen 3d chomikuj, rise of the guardians chomikuj, strażnicy marzeń 3d rapidshare, jack mróz chomikuj, mikołaj ze strażników marzeń
Narzędzia wątku


O nas
DarkMachine jest najlepszym i najstarszym forum wielotematycznym oraz forum młodzieżowym z nastawieniem na rozrywkę, rozmowy, wymianę doświadczeniami, download, pobieranie, ściąganie, wzajemną pomoc. Tylko u nas odnajdziesz wszystko czego potrzebujesz i szukasz w sieci - gry, programy, muzykę, filmy, seriale, książki, komiksy, audiobooki, torrenty, p2m. Na forum możesz też odnaleźć tematyczne działy przeznaczone do rozmów i rozwiązywania problemów naszych użytkowników.

Użytkownicy naszego serwisu wymieniają się plikami z hostingów: Rapidshare, Turbobit, Freakshare, Chomikuj, Bitshare, Uploading, Letitbit, Uploaded, Hotfile, Netload, Mediafire, 4shared, Zshare, FilePost, Depositfiles, Filefactory, Rapidgator, Hellshare, Hitfile, Extabit, Crocko, Ifile, ShareFlare, BayFiles, Jumbofiles, Vip-File, Share-Online, Uploadfloor, Oron, Fiberupload, Filevelocity, Filesonic, Megaupload, Megavideo, VideoBB, Putlocker, Ifilez, Fastshare ale to nie wszystkie hostingi z których korzystają nasi użytkownicy.

Tematyka forum może przypominać takie serwisy jak: forumowisko, peb, darkwarez, precyl, exsite, megawarez, zajefajna, uploaduj, elitewarez, ajo, piratebay, filestube, p2m.

Powered by vBulletin®
Copyright © DarkMachine.pl 2006 - 2015
Czasy w strefie GMT +1. Teraz jest 12:14.


Change forum language


Change forum style



BTC: 1HsAvx1joQNEYagXcR8mYNLKoLQDGDQZwN | LTC: Lbz4rJUrkKgAKveWEMGWArL2s8horbyN3o | PPC: PQiSxBo49kKzvQN3RAnUc3pqi1xRAXGsjh