DarkMachine.pl - Forum wielotematyczne

Wróć   DarkMachine.pl - Forum wielotematyczne » Giełda Download » Filmy » Filmy 3D


Filmy 3D filmy, bajki i animacje w trójwymiarze


Polecamy na forum


 
Wersja językowa Narzędzia wątku

Przeglądasz temat: Strażnicy Galaktyki / Guardians of the Galaxy (2014)
Sprawdź też: Dzień Niepodległości: Odrodzenie / Independence Day: Resurgence 3D (2016) | Despicable Me 2 / Minionki rozrabiają (2013)
Tagi do tematu: 2014, galaktyki, galaxy, guardians, strażnicy
Poleć ten temat na:
 
 
        
  
Stare 17-11-2014, 15:17   #1
Motylek
VIP


 
Awatar Motylek
 
Info o Motylek
Dołączył: Aug 2011
Postów: 18,661

Podziękowano:
100 razy

Domyślnie Strażnicy Galaktyki / Guardians of the Galaxy (2014)

Strażnicy Galaktyki / Guardians of the Galaxy (2014) 3D.1080p.BluRay.Half-SBS.DTS.x264-HDA

Strażnicy Galaktyki / Guardians of the Galaxy (2014)

gatunek: Akcja, Sci-Fi
produkcja: USA
premiera: 1 sierpnia 2014 (Polska) 21 lipca 2014 (świat)
reżyseria: James Gunn
scenariusz: James Gunn, Nicole Perlman

Zuchwały awanturnik Peter Quill kradnie tajemniczy artefakt stanowiący obiekt pożądania złego i potężnego Ronana, którego ambicje zagrażają całemu wszechświatowi. Chcąc uniknąć gniewu Ronana, Quill zmuszony jest zawrzeć niewygodny sojusz z czterema niemającymi nic do stracenia outsiderami: Rocketem – uzbrojonym szopem, Grootem – drzewokształtnym humanoidem, śmiertelnie niebezpieczną i tajemniczą Gamorą i żądnym zemsty Draxem Niszczycielem. Kiedy główny bohater odkrywa prawdziwą moc artefaktu i zagrożenie, jakie stanowi on dla kosmosu, musi zmobilizować swoich niesubordynowanych towarzyszy do ostatniej bitwy, od której zależą losy galaktyki.



Strażnicy Galaktyki / Guardians of the Galaxy (2014) 3D.1080p.BluRay.Half-SBS.DTS.x264-HDA

RELEASE NAME..: Guardians.of.the.Galaxy.2014.3D.1080p.BluRay.Half-SBS.DTS.x264-HDA
RELEASE SIZE..: 13.2 GB
RUNTIME.......: 2h 00mn 51s
VIDEO CODEC...: x264, CRF, High@L4.1
FRAMERATE.....: 23.976 fps
BITRATE.......: 13.7 Mbps
RESOLUTION....: 1920 x 1080
AUDIO.........: English DTS 6ch @ 1510 Kbps
CHAPTERS......: Included
SOURCE........: 3D 1080p BluRay AVC DTS-HD 7.1-HDA
SUBTITLES.....: English 2D/3D
RELEASE DATE..: 17/11/2014
ENCODER.......: HDfreak


Treść widoczna tylko dla użytkowników forum DarkMachine. Zaloguj się lub załóż darmowe konto na forum aby uzyskać dostęp bez limitów.



Motylek jest nieaktywny  
Stare 28-11-2014, 19:06   #2
michas85pl
VIP


 
Awatar michas85pl
 
Info o michas85pl
Dołączył: Mar 2010
Wiek: 32
Postów: 26,066

Podziękowano:
87 razy

Domyślnie

Strażnicy Galaktyki / Guardians of the Galaxy (2014) 3D.MULTi.1080p.BluRay.Half-SBS.DTS.AC3.x264-LLO / PROFESJONALNY DUBBING PL

DANE TECHNICZNE


Treść widoczna tylko dla użytkowników forum DarkMachine. Zaloguj się lub załóż darmowe konto na forum aby uzyskać dostęp bez limitów.




OPIS UPLOADU


Treść widoczna tylko dla użytkowników forum DarkMachine. Zaloguj się lub załóż darmowe konto na forum aby uzyskać dostęp bez limitów.




Download:
(można pobierać zamiennie z serwerów)




Treść widoczna tylko dla użytkowników forum DarkMachine. Zaloguj się lub załóż darmowe konto na forum aby uzyskać dostęp bez limitów.






Treść widoczna tylko dla użytkowników forum DarkMachine. Zaloguj się lub załóż darmowe konto na forum aby uzyskać dostęp bez limitów.






Treść widoczna tylko dla użytkowników forum DarkMachine. Zaloguj się lub załóż darmowe konto na forum aby uzyskać dostęp bez limitów.






Treść widoczna tylko dla użytkowników forum DarkMachine. Zaloguj się lub załóż darmowe konto na forum aby uzyskać dostęp bez limitów.






Treść widoczna tylko dla użytkowników forum DarkMachine. Zaloguj się lub załóż darmowe konto na forum aby uzyskać dostęp bez limitów.






Treść widoczna tylko dla użytkowników forum DarkMachine. Zaloguj się lub załóż darmowe konto na forum aby uzyskać dostęp bez limitów.






Treść widoczna tylko dla użytkowników forum DarkMachine. Zaloguj się lub załóż darmowe konto na forum aby uzyskać dostęp bez limitów.






Treść widoczna tylko dla użytkowników forum DarkMachine. Zaloguj się lub załóż darmowe konto na forum aby uzyskać dostęp bez limitów.






Treść widoczna tylko dla użytkowników forum DarkMachine. Zaloguj się lub załóż darmowe konto na forum aby uzyskać dostęp bez limitów.




BRAK HASŁA
michas85pl jest nieaktywny  
Stare 29-11-2014, 10:35   #3
michas85pl
VIP


 
Awatar michas85pl
 
Info o michas85pl
Dołączył: Mar 2010
Wiek: 32
Postów: 26,066

Podziękowano:
87 razy

Domyślnie

Strażnicy Galaktyki / Guardians of the Galaxy (2014) 3D.MULTi.1080p.BluRay.Half-OU.HD.MA.7.1.AC3.x264-LLO / PROFESJONALNY DUBING PL

DANE TECHNICZNE


Treść widoczna tylko dla użytkowników forum DarkMachine. Zaloguj się lub załóż darmowe konto na forum aby uzyskać dostęp bez limitów.




OPIS UPLOADU


Treść widoczna tylko dla użytkowników forum DarkMachine. Zaloguj się lub załóż darmowe konto na forum aby uzyskać dostęp bez limitów.




Download:
(można pobierać zamiennie z serwerów)




Treść widoczna tylko dla użytkowników forum DarkMachine. Zaloguj się lub załóż darmowe konto na forum aby uzyskać dostęp bez limitów.






Treść widoczna tylko dla użytkowników forum DarkMachine. Zaloguj się lub załóż darmowe konto na forum aby uzyskać dostęp bez limitów.






Treść widoczna tylko dla użytkowników forum DarkMachine. Zaloguj się lub załóż darmowe konto na forum aby uzyskać dostęp bez limitów.






Treść widoczna tylko dla użytkowników forum DarkMachine. Zaloguj się lub załóż darmowe konto na forum aby uzyskać dostęp bez limitów.






Treść widoczna tylko dla użytkowników forum DarkMachine. Zaloguj się lub załóż darmowe konto na forum aby uzyskać dostęp bez limitów.






Treść widoczna tylko dla użytkowników forum DarkMachine. Zaloguj się lub załóż darmowe konto na forum aby uzyskać dostęp bez limitów.






Treść widoczna tylko dla użytkowników forum DarkMachine. Zaloguj się lub załóż darmowe konto na forum aby uzyskać dostęp bez limitów.






Treść widoczna tylko dla użytkowników forum DarkMachine. Zaloguj się lub załóż darmowe konto na forum aby uzyskać dostęp bez limitów.






Treść widoczna tylko dla użytkowników forum DarkMachine. Zaloguj się lub załóż darmowe konto na forum aby uzyskać dostęp bez limitów.




BRAK HASŁA

Ostatnio edytowane przez michas85pl ; 29-11-2014 o 10:41
michas85pl jest nieaktywny  
Stare 29-11-2014, 22:39   #4
Motylek
VIP


 
Awatar Motylek
 
Info o Motylek
Dołączył: Aug 2011
Postów: 18,661

Podziękowano:
100 razy

Domyślnie

Strażnicy Galaktyki 3D / Guardians of the Galaxy 3D (2014) mini-HD.1080p.Half.Over-Under.AC3.BluRay.x264-SONDA |Dubbing PL

Spoiler:
General
Format : Matroska
Format version : Version 2
File size : 3.95 GiB
Duration : 2h 0mn
Overall bit rate : 4 684 Kbps
Movie name : GUARDIANS_OF_THE_GALAXY_3D.miniHD.1080p.Bluray3D [Rip by Sonda AT-Team]
Encoded date : UTC 2014-11-29 08:47:17
Writing application : mkvmerge v5.7.0 ('The Whirlwind') built on Jul 8 2012 20:08:51
Writing library : libebml v1.2.3 + libmatroska v1.3.0

Video
ID : 1
Format : AVC
Format/Info : Advanced Video Codec
Format profile : High@L4.1
Format settings, CABAC : Yes
Format settings, ReFrames : 2 frames
Codec ID : V_MPEG4/ISO/AVC
Duration : 2h 0mn
Bit rate : 4 207 Kbps
Width : 1 920 pixels
Height : 1 080 pixels
Display aspect ratio : 2.40:1 - 1.78:1
Frame rate mode : Constant
Frame rate : 23.976 fps
Color space : YUV
Chroma subsampling : 4:2:0
Bit depth : 8 bits
Scan type : Progressive
Bits/(Pixel*Frame) : 0.085
Stream size : 3.55 GiB (90%)
Title : Rip by Sonda - encoding 2 pass
Writing library : x264 core
Default : Yes
Forced : No
Color primaries : BT.709
Transfer characteristics : BT.709
Matrix coefficients : BT.709

Audio
ID : 2
Format : AC-3
Format/Info : Audio Coding 3
Mode extension : CM (complete main)
Format settings, Endianness : Big
Codec ID : A_AC3
Duration : 2h 0mn
Bit rate mode : Constant
Bit rate : 384 Kbps
Channel(s) : 6 channels
Channel positions : Front: L C R, Side: L R, LFE
Sampling rate : 48.0 KHz
Bit depth : 16 bits
Compression mode : Lossy
Stream size : 332 MiB (8%)
Title : AC3 5.1 Dubbing PL
Language : Polish
Default : Yes
Forced : No


Source:
A/V-Guardians.of.the.Galaxy.2014.3D.1080p.BluRay.AVC.D TS-HD.MA.7.1-RARBG
Dubbing PL - DVD






Treść widoczna tylko dla użytkowników forum DarkMachine. Zaloguj się lub załóż darmowe konto na forum aby uzyskać dostęp bez limitów.



Motylek jest nieaktywny  
Stare 28-12-2014, 18:09   #5
Pink134lol
Mistrz klawiatury
 
Awatar Pink134lol
 
Info o Pink134lol
Dołączył: Nov 2014
Skąd: Kraków
Wiek: 27
Postów: 353

Podziękowano:
1 raz

Domyślnie

Strażnicy Galaktyki / Guardians of the Galaxy 2014 3D MULTi 1080p BluRay Half-SBS DTS AC3 x264-LLO / Dubbing PL /



Treść widoczna tylko dla użytkowników forum DarkMachine. Zaloguj się lub załóż darmowe konto na forum aby uzyskać dostęp bez limitów.






Treść widoczna tylko dla użytkowników forum DarkMachine. Zaloguj się lub załóż darmowe konto na forum aby uzyskać dostęp bez limitów.






Treść widoczna tylko dla użytkowników forum DarkMachine. Zaloguj się lub załóż darmowe konto na forum aby uzyskać dostęp bez limitów.






Treść widoczna tylko dla użytkowników forum DarkMachine. Zaloguj się lub załóż darmowe konto na forum aby uzyskać dostęp bez limitów.






Treść widoczna tylko dla użytkowników forum DarkMachine. Zaloguj się lub załóż darmowe konto na forum aby uzyskać dostęp bez limitów.



Pink134lol jest nieaktywny  
Stare 29-04-2015, 21:51   #6
Motylek
VIP


 
Awatar Motylek
 
Info o Motylek
Dołączył: Aug 2011
Postów: 18,661

Podziękowano:
100 razy

Domyślnie

Strażnicy Galaktyki 3D / Guardians of the Galaxy 3D (2014) 1080p.BluRay.Half.Over-Under.x264.DTS.5.1.AC3-SONDA | Dubbing i Napisy PL

Format : Matroska at 13.9 Mbps
Length : 11.7 GiB for 2h 0mn 51s 211ms

Video #0 : AVC at 10.8 Mbps
Aspect : 1920 x 1080 (1.778) at 23.976 fps

Audio #0 : AC-3 at 640 Kbps
Infos : 6 channels, 48.0 KHz
Language : pl

Audio #1 : AC-3 at 640 Kbps
Infos : 6 channels, 48.0 KHz
Language : en

Audio #2 : DTS at 1 509 Kbps
Infos : 6 channels, 48.0 KHz
Language : en

Text #0 : UTF-8
Language : pl

Text #1 : PGS
Language : pl


Treść widoczna tylko dla użytkowników forum DarkMachine. Zaloguj się lub załóż darmowe konto na forum aby uzyskać dostęp bez limitów.



Motylek jest nieaktywny  
Stare 07-10-2015, 13:22   #7
ziger
Mistrz klawiatury
 
Awatar ziger
 
Info o ziger
Dołączył: Sep 2015
Skąd: poznan
Wiek: 37
Postów: 472

Podziękowano:
0 razy

Domyślnie

Strażnicy Galaktyki / Guardians of the Galaxy (2014) PL.3D.Anaglif.1080p.BluRay.x264.AC3-DX / Dubbing PL

Spoiler:
Strażnicy Galaktyki / Guardians of the Galaxy (2014)

reżyseria: James Gunn
scenariusz: James Gunn Nicole Perlman
gatunek: AkcjaSci-Fi
produkcja: USA
premiera: 1 sierpnia 2014 (Polska) 21 lipca 2014 (świat)



Zuchwały awanturnik Peter Quill kradnie tajemniczy artefakt będący obiektem pożądania
złego i potężnego Ronana, którego ambicje zagrażają całemu wszechświatowi.


General
Spoiler:
Format : Matroska
File size : 8.04 GiB
Duration : 2h 0mn
Overall bit rate : 9 523 Kbps
Video #1
ID : 1
Format : AVC
Format/Info : Advanced Video Codec
Format profile : Main@L4.0
Codec ID : V_MPEG4/ISO/AVC
Duration : 2h 0mn
Bit rate : 8 886 Kbps
Nominal bit rate : 9 034 Kbps
Width : 1 920 pixels
Height : 800 pixels
Display aspect ratio : 2.40:1
Frame rate : 23.976 fps
Audio #2
ID : 2
Format : AC-3
Format/Info : Audio Coding 3
Codec ID : A_AC3
Duration : 2h 0mn
Bit rate mode : Constant
Bit rate : 448 Kbps
Channel(s) : 6 channels
Channel positions : Front: L C R, Surround: L R, LFE
Sampling rate : 48.0 KHz
Stream size : 387 MiB (5%)
Language : Polish




Film w wersji 3D. Do oglądania filmu potrzebujemy okularów anaglifowych: Red/Cyan

Strażnicy Galaktyki / Guardians of the Galaxy (2014)

Source A/V : BD


Kompresja RAR + 10% Danych Naprawczych
Brak Hasła
Plki po 1Gb
Pliki można pobierać na przemian

Rapidu - FileShark :




Treść widoczna tylko dla użytkowników forum DarkMachine. Zaloguj się lub załóż darmowe konto na forum aby uzyskać dostęp bez limitów.




Ostatnio edytowane przez ziger ; 18-10-2015 o 12:53
ziger jest nieaktywny  
Stare 08-10-2015, 10:23   #8
Motylek
VIP


 
Awatar Motylek
 
Info o Motylek
Dołączył: Aug 2011
Postów: 18,661

Podziękowano:
100 razy

Domyślnie

Strażnicy Galaktyki / Guardians of the Galaxy (2014) IMAX EDITION.1080p.3D.Half.Over-Under.DTS-HD MA.7.1.AC3.Custom.BluRay.x264-LEON 345|Lektor,Dubbing i Napisy PL

Spoiler:


Format : Matroska
Format version : Version 4 / Version 2
File size : 17.0 GiB
Duration : 2h 0mn
Overall bit rate mode : Variable
Overall bit rate : 20.2 Mbps
Movie name : Guardians.Of.The.Galaxy.2014.3D.HOU.BDRip.DTS.Cust om.Leon345
Encoded date : UTC 2015-10-07 10:47:16
Writing application : mkvmerge v8.3.0 ('Over the Horizon') 64bit
Writing library : libebml v1.3.1 + libmatroska v1.4.2

Video
ID : 1
Format : AVC
Format/Info : Advanced Video Codec
Format profile : High@L4.1
Format settings, CABAC : Yes
Format settings, ReFrames : 4 frames
Codec ID : V_MPEG4/ISO/AVC
Duration : 2h 0mn
Nominal bit rate : 12.1 Mbps
Width : 1 920 pixels
Height : 1 080 pixels
Display aspect ratio : 16:9 (2.40:1 , 1.78:1)
Frame rate mode : Constant
Frame rate : 23.976 fps
Color space : YUV
Chroma subsampling : 4:2:0
Bit depth : 8 bits
Scan type : Progressive
Bits/(Pixel*Frame) : 0.243
Writing library : x264
Encoding settings : cabac=1 / ref=4 / rc=2pass
Default : Yes
Forced : No

Audio #1
ID : 2
Format : AC-3
Format/Info : Audio Coding 3
Mode extension : CM (complete main)
Format settings, Endianness : Big
Codec ID : A_AC3
Duration : 2h 0mn
Bit rate mode : Constant
Bit rate : 640 Kbps
Channel(s) : 6 channels
Channel positions : Front: L C R, Side: L R, LFE
Sampling rate : 48.0 KHz
Bit depth : 16 bits
Compression mode : Lossy
Stream size : 553 MiB (3%)
Title : AC3 5.1 Lektor PL Custom
Language : Polish
Default : Yes
Forced : Yes

Audio #2
ID : 3
Format : AC-3
Format/Info : Audio Coding 3
Mode extension : CM (complete main)
Format settings, Endianness : Big
Codec ID : A_AC3
Duration : 2h 0mn
Bit rate mode : Constant
Bit rate : 640 Kbps
Channel(s) : 6 channels
Channel positions : Front: L C R, Side: L R, LFE
Sampling rate : 48.0 KHz
Bit depth : 16 bits
Compression mode : Lossy
Stream size : 553 MiB (3%)
Title : AC3 5.1 Dubbing PL
Language : Polish
Default : No
Forced : No

Audio #3
ID : 4
Format : AC-3
Format/Info : Audio Coding 3
Mode extension : CM (complete main)
Format settings, Endianness : Big
Codec ID : A_AC3
Duration : 2h 0mn
Bit rate mode : Constant
Bit rate : 640 Kbps
Channel(s) : 6 channels
Channel positions : Front: L C R, Side: L R, LFE
Sampling rate : 48.0 KHz
Bit depth : 16 bits
Compression mode : Lossy
Stream size : 553 MiB (3%)
Title : AC3 5.1
Language : English
Default : No
Forced : No

Audio #4
ID : 5
Format : DTS
Format/Info : Digital Theater Systems
Mode : 16
Format settings, Endianness : Big
Codec ID : A_DTS
Duration : 2h 0mn
Bit rate mode : Constant
Bit rate : 1 510 Kbps
Channel(s) : 6 channels
Channel positions : Front: L C R, Side: L R, LFE
Sampling rate : 48.0 KHz
Bit depth : 24 bits
Compression mode : Lossy
Stream size : 1.27 GiB (7%)
Title : DTS 5.1 Lektor PL Custom
Language : Polish
Default : No
Forced : No

Audio #5
ID : 6
Format : DTS
Format/Info : Digital Theater Systems
Format profile : MA / Core
Mode : 16
Format settings, Endianness : Big
Codec ID : A_DTS
Duration : 2h 0mn
Bit rate mode : Variable
Bit rate : 4617 / 1 509 Kbps
Channel(s) : 8 channels / 6 channels
Channel positions : Front: L C R, Side: L R, Back: L R, LFE / Front: L C R, Side: L R, LFE
Sampling rate : 48.0 KHz
Bit depth : 24 bits
Compression mode : Lossless / Lossy
Title : DTS-HD MA 7.1
Language : English
Default : No
Forced : No

Text #1
ID : 7
Format : PGS
Muxing mode : zlib
Codec ID : S_HDMV/PGS
Codec ID/Info : The same subtitle format used on BDs/HD-DVDs
Title : Napisy 3D
Language : Polish
Default : No
Forced : No

Text #2
ID : 8
Format : PGS
Muxing mode : zlib
Codec ID : S_HDMV/PGS
Codec ID/Info : The same subtitle format used on BDs/HD-DVDs
Title : Napisy 3D
Language : English
Default : No
Forced : No

Source: [Thx]
A/V - Guardians of the Galaxy (2014) [IMAX Edition] Blu-ray 3D EUR 1080p AVC DD5.1-NiP
Dubbing PL - BD
Lektor PL - TV custom 5.1 Leon 345





Treść widoczna tylko dla użytkowników forum DarkMachine. Zaloguj się lub załóż darmowe konto na forum aby uzyskać dostęp bez limitów.







Strażnicy Galaktyki / Guardians of the Galaxy (2014) IMAX (48 FPS) 1080p.3D.Half.Over-Under.DTS-HD MA.7.1.AC3.BluRay.x264-SONDA |Lektor,Dubbing i Napisy PL

Spoiler:
General
Format : Matroska
Format version : Version 2
File size : 23.6 GiB
Duration : 2h 0mn
Overall bit rate mode : Variable
Overall bit rate : 27.9 Mbps
Movie name : Guardians.of.the.Galaxy.3D.2014.H-OU.BDRip.1080p.48FPS Rip by Sonda [AT-Team]
Encoded date : UTC 2015-10-06 12:21:33
Writing application : mkvmerge v5.7.0 ('The Whirlwind') built on Jul 8 2012 20:08:51
Writing library : libebml v1.2.3 + libmatroska v1.3.0

Video
ID : 1
Format : AVC
Format/Info : Advanced Video Codec
Format profile : High@L4.1
Format settings, CABAC : Yes
Format settings, ReFrames : 4 frames
Codec ID : V_MPEG4/ISO/AVC
Duration : 2h 0mn
Nominal bit rate : 22.0 Mbps
Width : 1 920 pixels
Height : 1 080 pixels
Display aspect ratio : 16:9 (2.39:1-1.78:1)
Frame rate mode : Constant
Frame rate : 47.952 fps
Color space : YUV
Chroma subsampling : 4:2:0
Bit depth : 8 bits
Scan type : Progressive
Bits/(Pixel*Frame) : 0.221
Title : 3D 48FPS Rip by Sonda
Writing library : x264 core
Encoding settings : cabac=1 / ref=4 / deblock=1:-1:-1 / rc=abr
Default : Yes
Forced : No

Audio #1
ID : 2
Format : AC-3
Format/Info : Audio Coding 3
Mode extension : CM (complete main)
Format settings, Endianness : Big
Codec ID : A_AC3
Duration : 2h 0mn
Bit rate mode : Constant
Bit rate : 192 Kbps
Channel count : 2 channels
Channel positions : Front: L R
Sampling rate : 48.0 KHz
Bit depth : 16 bits
Compression mode : Lossy
Stream size : 166 MiB (1%)
Title : AC3 2.0 Lektor PL
Language : Polish
Default : Yes
Forced : Yes

Audio #2
ID : 3
Format : AC-3
Format/Info : Audio Coding 3
Mode extension : CM (complete main)
Format settings, Endianness : Big
Codec ID : A_AC3
Duration : 2h 0mn
Bit rate mode : Constant
Bit rate : 640 Kbps
Channel count : 6 channels
Channel positions : Front: L C R, Side: L R, LFE
Sampling rate : 48.0 KHz
Bit depth : 16 bits
Compression mode : Lossy
Stream size : 553 MiB (2%)
Title : AC3 5.1 Dubbing PL
Language : Polish
Default : No
Forced : No

Audio #3
ID : 4
Format : AC-3
Format/Info : Audio Coding 3
Mode extension : CM (complete main)
Format settings, Endianness : Big
Codec ID : A_AC3
Duration : 2h 0mn
Bit rate mode : Constant
Bit rate : 640 Kbps
Channel count : 6 channels
Channel positions : Front: L C R, Side: L R, LFE
Sampling rate : 48.0 KHz
Bit depth : 16 bits
Compression mode : Lossy
Stream size : 553 MiB (2%)
Title : AC3 5.1 ENG
Language : English
Default : No
Forced : No

Audio #4
ID : 5
Format : DTS
Format/Info : Digital Theater Systems
Format profile : MA / Core
Mode : 16
Format settings, Endianness : Big
Codec ID : A_DTS
Duration : 2h 0mn
Bit rate mode : Variable
Bit rate : 4617 / 1 509 Kbps
Channel count : 8 channels / 6 channels
Channel positions : Front: L C R, Side: L R, Back: L R, LFE / Front: L C R, Side: L R, LFE
Sampling rate : 48.0 KHz
Bit depth : 24 bits
Compression mode : Lossless / Lossy
Title : DTS-HD MA 7.1
Language : English
Default : No
Forced : No

Text #1
ID : 6
Format : PGS
Muxing mode : zlib
Codec ID : S_HDMV/PGS
Codec ID/Info : The same subtitle format used on BDs/HD-DVDs
Title : Napisy PL 3D
Language : Polish
Default : No
Forced : No

Text #2
ID : 7
Format : PGS
Muxing mode : zlib
Codec ID : S_HDMV/PGS
Codec ID/Info : The same subtitle format used on BDs/HD-DVDs
Title : Napisy ENG 3D
Language : English
Default : No
Forced : No

Source:
A/V-Guardians.of.the.Galaxy.2014.3D.1080p.BluRay.AVC.D TS-HD.MA.7.1-RARBG
Dubbing PL - BD
Lektor PL - VOD





Treść widoczna tylko dla użytkowników forum DarkMachine. Zaloguj się lub załóż darmowe konto na forum aby uzyskać dostęp bez limitów.



Motylek jest nieaktywny  
Stare 08-10-2015, 17:37   #9
michas85pl
VIP


 
Awatar michas85pl
 
Info o michas85pl
Dołączył: Mar 2010
Wiek: 32
Postów: 26,066

Podziękowano:
87 razy

Domyślnie

Straznicy Galaktyki / Guardians of the Galaxy (2014) MULTi.1080p.HOU.BluRay.x264.AC3-KLiO / LEKTOR PL i DUBBING PL i NAPISY PL

DANE TECHNICZNE


Treść widoczna tylko dla użytkowników forum DarkMachine. Zaloguj się lub załóż darmowe konto na forum aby uzyskać dostęp bez limitów.




OPIS UPLOADU


Treść widoczna tylko dla użytkowników forum DarkMachine. Zaloguj się lub załóż darmowe konto na forum aby uzyskać dostęp bez limitów.




Download:
(można pobierać zamiennie z serwerów)




Treść widoczna tylko dla użytkowników forum DarkMachine. Zaloguj się lub załóż darmowe konto na forum aby uzyskać dostęp bez limitów.






Treść widoczna tylko dla użytkowników forum DarkMachine. Zaloguj się lub załóż darmowe konto na forum aby uzyskać dostęp bez limitów.






Treść widoczna tylko dla użytkowników forum DarkMachine. Zaloguj się lub załóż darmowe konto na forum aby uzyskać dostęp bez limitów.






Treść widoczna tylko dla użytkowników forum DarkMachine. Zaloguj się lub załóż darmowe konto na forum aby uzyskać dostęp bez limitów.






Treść widoczna tylko dla użytkowników forum DarkMachine. Zaloguj się lub załóż darmowe konto na forum aby uzyskać dostęp bez limitów.






Treść widoczna tylko dla użytkowników forum DarkMachine. Zaloguj się lub załóż darmowe konto na forum aby uzyskać dostęp bez limitów.






Treść widoczna tylko dla użytkowników forum DarkMachine. Zaloguj się lub załóż darmowe konto na forum aby uzyskać dostęp bez limitów.






Treść widoczna tylko dla użytkowników forum DarkMachine. Zaloguj się lub załóż darmowe konto na forum aby uzyskać dostęp bez limitów.






Treść widoczna tylko dla użytkowników forum DarkMachine. Zaloguj się lub załóż darmowe konto na forum aby uzyskać dostęp bez limitów.




BRAK HASŁA
michas85pl jest nieaktywny  
Stare 10-10-2015, 13:22   #10
Hemsworth
Mistrzunio
 
Awatar Hemsworth
 
Info o Hemsworth
Dołączył: Sep 2015
Skąd: Warszawa
Wiek: 31
Postów: 163

Podziękowano:
0 razy

Domyślnie

Strażnicy Galaktyki / Guardians of the Galaxy (2014) 1080p 3D BluRay Half-SBS x264 | Dubbing PL



Treść widoczna tylko dla użytkowników forum DarkMachine. Zaloguj się lub załóż darmowe konto na forum aby uzyskać dostęp bez limitów.






Treść widoczna tylko dla użytkowników forum DarkMachine. Zaloguj się lub załóż darmowe konto na forum aby uzyskać dostęp bez limitów.






Treść widoczna tylko dla użytkowników forum DarkMachine. Zaloguj się lub załóż darmowe konto na forum aby uzyskać dostęp bez limitów.



Hemsworth jest nieaktywny  
Słowa kluczowe związane z tematem Strażnicy Galaktyki / Guardians of the Galaxy (2014): Strażnicy Galaktyki / Guardians of the Galaxy (2014) download, Strażnicy Galaktyki / Guardians of the Galaxy (2014) peb, Strażnicy Galaktyki / Guardians of the Galaxy (2014) do pobrania, Strażnicy Galaktyki / Guardians of the Galaxy (2014) chomikuj, Strażnicy Galaktyki / Guardians of the Galaxy (2014) za darmo, Strażnicy Galaktyki / Guardians of the Galaxy (2014) precyl, Strażnicy Galaktyki / Guardians of the Galaxy (2014) do ściągnięcia, Strażnicy Galaktyki / Guardians of the Galaxy (2014) free, Strażnicy Galaktyki / Guardians of the Galaxy (2014) darkwarez, Strażnicy Galaktyki / Guardians of the Galaxy (2014) rar, Strażnicy Galaktyki / Guardians of the Galaxy (2014) filestube, Strażnicy Galaktyki / Guardians of the Galaxy (2014) warez, Strażnicy Galaktyki / Guardians of the Galaxy (2014) portal, Strażnicy Galaktyki / Guardians of the Galaxy (2014) bez płacenia, Strażnicy Galaktyki / Guardians of the Galaxy (2014) elitewarez, Strażnicy Galaktyki / Guardians of the Galaxy (2014) no limits, Strażnicy Galaktyki / Guardians of the Galaxy (2014) bez premium, Strażnicy Galaktyki / Guardians of the Galaxy (2014) bez limitów, Strażnicy Galaktyki / Guardians of the Galaxy (2014) bez konta premium

Podobne wątki do: Strażnicy Galaktyki / Guardians of the Galaxy (2014)
Wątek Autor wątku Forum Odpowiedzi Ostatni post / autor
Strażnicy marzeń / Rise of the Guardians (2012) Motylek Filmy 3D 6 20-11-2015 21:56
Strażnicy Galaktyki / Guardians of the Galaxy (2014) michas85pl Filmy HD, DVD, Blu-Ray 14 18-11-2015 18:31
Strażnicy Galaktyki / Guardians of the Galaxy (2014) markusdwa Napisy / Inne wersje językowe 18 02-12-2014 10:19
Strażnicy marzeń / Rise of the Guardians (2012) hombbre Filmy HD, DVD, Blu-Ray 17 09-02-2014 13:47
Strażnicy marzeń / Rise of the Guardians (2012) wyjadacz5 Napisy / Inne wersje językowe 1 05-04-2013 17:43

Narzędzia wątku


O nas
DarkMachine jest najlepszym i najstarszym forum wielotematycznym oraz forum młodzieżowym z nastawieniem na rozrywkę, rozmowy, wymianę doświadczeniami, download, pobieranie, ściąganie, wzajemną pomoc. Tylko u nas odnajdziesz wszystko czego potrzebujesz i szukasz w sieci - gry, programy, muzykę, filmy, seriale, książki, komiksy, audiobooki, torrenty, p2m. Na forum możesz też odnaleźć tematyczne działy przeznaczone do rozmów i rozwiązywania problemów naszych użytkowników.

Użytkownicy naszego serwisu wymieniają się plikami z hostingów: Rapidshare, Turbobit, Freakshare, Chomikuj, Bitshare, Uploading, Letitbit, Uploaded, Hotfile, Netload, Mediafire, 4shared, Zshare, FilePost, Depositfiles, Filefactory, Rapidgator, Hellshare, Hitfile, Extabit, Crocko, Ifile, ShareFlare, BayFiles, Jumbofiles, Vip-File, Share-Online, Uploadfloor, Oron, Fiberupload, Filevelocity, Filesonic, Megaupload, Megavideo, VideoBB, Putlocker, Ifilez, Fastshare ale to nie wszystkie hostingi z których korzystają nasi użytkownicy.

Tematyka forum może przypominać takie serwisy jak: forumowisko, peb, darkwarez, precyl, exsite, megawarez, zajefajna, uploaduj, elitewarez, ajo, piratebay, filestube, p2m.

Powered by vBulletin®
Copyright © DarkMachine.pl 2006 - 2015
Czasy w strefie GMT +1. Teraz jest 16:05.


Change forum language


Change forum style



BTC: 1HsAvx1joQNEYagXcR8mYNLKoLQDGDQZwN | LTC: Lbz4rJUrkKgAKveWEMGWArL2s8horbyN3o | PPC: PQiSxBo49kKzvQN3RAnUc3pqi1xRAXGsjh