DarkMachine.pl - Forum wielotematyczne

Wróć   DarkMachine.pl - Forum wielotematyczne » Giełda Download » Filmy » Filmy HD, DVD, Blu-Ray


Filmy HD, DVD, Blu-Ray Filmy w najwyższej jakości o dużych rozdzielczościach ...


Polecamy na forum


 
Wersja językowa Narzędzia wątku

Przeglądasz temat: Strażnicy Galaktyki / Guardians of the Galaxy (2014)
Sprawdź też: Uwolnić Mikołaja! / Get Santa (2014) | Marnie. Przyjaciółka ze snów / When Marnie Was There / Omoide no Marnie (2014)
Tagi do tematu: 2014, galaktyki, galaxy, guardians, strażnicy
Poleć ten temat na:
 
 
        
  
Stare 07-10-2015, 13:24   #11
ziger
Mistrz klawiatury
 
Awatar ziger
 
Info o ziger
Dołączył: Sep 2015
Skąd: poznan
Wiek: 37
Postów: 472

Podziękowano:
0 razy

Domyślnie

Strażnicy Galaktyki / Guardians of the Galaxy (2014) PL.3D.Anaglif.1080p.BluRay.x264.AC3-DX / Dubbing PL

Spoiler:
Strażnicy Galaktyki / Guardians of the Galaxy (2014)

reżyseria: James Gunn
scenariusz: James Gunn Nicole Perlman
gatunek: AkcjaSci-Fi
produkcja: USA
premiera: 1 sierpnia 2014 (Polska) 21 lipca 2014 (świat)



Zuchwały awanturnik Peter Quill kradnie tajemniczy artefakt będący obiektem pożądania
złego i potężnego Ronana, którego ambicje zagrażają całemu wszechświatowi.


General
Spoiler:
Format : Matroska
File size : 8.04 GiB
Duration : 2h 0mn
Overall bit rate : 9 523 Kbps
Video #1
ID : 1
Format : AVC
Format/Info : Advanced Video Codec
Format profile : Main@L4.0
Codec ID : V_MPEG4/ISO/AVC
Duration : 2h 0mn
Bit rate : 8 886 Kbps
Nominal bit rate : 9 034 Kbps
Width : 1 920 pixels
Height : 800 pixels
Display aspect ratio : 2.40:1
Frame rate : 23.976 fps
Audio #2
ID : 2
Format : AC-3
Format/Info : Audio Coding 3
Codec ID : A_AC3
Duration : 2h 0mn
Bit rate mode : Constant
Bit rate : 448 Kbps
Channel(s) : 6 channels
Channel positions : Front: L C R, Surround: L R, LFE
Sampling rate : 48.0 KHz
Stream size : 387 MiB (5%)
Language : Polish



Film w wersji 3D. Do oglądania filmu potrzebujemy okularów anaglifowych: Red/Cyan

Strażnicy Galaktyki / Guardians of the Galaxy (2014)

Source A/V : BD


Kompresja RAR + 10% Danych Naprawczych
Brak Hasła
Plki po 1Gb
Pliki można pobierać na przemian

Rapidu - FileShark :




Treść widoczna tylko dla użytkowników forum DarkMachine. Zaloguj się lub załóż darmowe konto na forum aby uzyskać dostęp bez limitów.



ziger jest nieaktywny  
Stare 08-10-2015, 17:54   #12
michas85pl
VIP


 
Awatar michas85pl
 
Info o michas85pl
Dołączył: Mar 2010
Wiek: 32
Postów: 26,066

Podziękowano:
87 razy

Domyślnie

Strażnicy Galaktyki / Guardians of the Galaxy (2014) PL.iMAX.720p.BluRay.x264-B89 / LEKTOR PL

DANE TECHNICZNE


Treść widoczna tylko dla użytkowników forum DarkMachine. Zaloguj się lub załóż darmowe konto na forum aby uzyskać dostęp bez limitów.




OPIS UPLOADU


Treść widoczna tylko dla użytkowników forum DarkMachine. Zaloguj się lub załóż darmowe konto na forum aby uzyskać dostęp bez limitów.




Download:
(można pobierać zamiennie z serwerów)




Treść widoczna tylko dla użytkowników forum DarkMachine. Zaloguj się lub załóż darmowe konto na forum aby uzyskać dostęp bez limitów.






Treść widoczna tylko dla użytkowników forum DarkMachine. Zaloguj się lub załóż darmowe konto na forum aby uzyskać dostęp bez limitów.






Treść widoczna tylko dla użytkowników forum DarkMachine. Zaloguj się lub załóż darmowe konto na forum aby uzyskać dostęp bez limitów.






Treść widoczna tylko dla użytkowników forum DarkMachine. Zaloguj się lub załóż darmowe konto na forum aby uzyskać dostęp bez limitów.






Treść widoczna tylko dla użytkowników forum DarkMachine. Zaloguj się lub załóż darmowe konto na forum aby uzyskać dostęp bez limitów.






Treść widoczna tylko dla użytkowników forum DarkMachine. Zaloguj się lub załóż darmowe konto na forum aby uzyskać dostęp bez limitów.






Treść widoczna tylko dla użytkowników forum DarkMachine. Zaloguj się lub załóż darmowe konto na forum aby uzyskać dostęp bez limitów.






Treść widoczna tylko dla użytkowników forum DarkMachine. Zaloguj się lub załóż darmowe konto na forum aby uzyskać dostęp bez limitów.






Treść widoczna tylko dla użytkowników forum DarkMachine. Zaloguj się lub załóż darmowe konto na forum aby uzyskać dostęp bez limitów.



BRAK HASŁA



Strażnicy Galaktyki / Guardians of the Galaxy (2014) PL.iMAX.1080p.BluRay.x264-B89 / LEKTOR PL

DANE TECHNICZNE


Treść widoczna tylko dla użytkowników forum DarkMachine. Zaloguj się lub załóż darmowe konto na forum aby uzyskać dostęp bez limitów.




OPIS UPLOADU


Treść widoczna tylko dla użytkowników forum DarkMachine. Zaloguj się lub załóż darmowe konto na forum aby uzyskać dostęp bez limitów.




Download:
(można pobierać zamiennie z serwerów)




Treść widoczna tylko dla użytkowników forum DarkMachine. Zaloguj się lub załóż darmowe konto na forum aby uzyskać dostęp bez limitów.






Treść widoczna tylko dla użytkowników forum DarkMachine. Zaloguj się lub załóż darmowe konto na forum aby uzyskać dostęp bez limitów.






Treść widoczna tylko dla użytkowników forum DarkMachine. Zaloguj się lub załóż darmowe konto na forum aby uzyskać dostęp bez limitów.






Treść widoczna tylko dla użytkowników forum DarkMachine. Zaloguj się lub załóż darmowe konto na forum aby uzyskać dostęp bez limitów.






Treść widoczna tylko dla użytkowników forum DarkMachine. Zaloguj się lub załóż darmowe konto na forum aby uzyskać dostęp bez limitów.






Treść widoczna tylko dla użytkowników forum DarkMachine. Zaloguj się lub załóż darmowe konto na forum aby uzyskać dostęp bez limitów.






Treść widoczna tylko dla użytkowników forum DarkMachine. Zaloguj się lub załóż darmowe konto na forum aby uzyskać dostęp bez limitów.






Treść widoczna tylko dla użytkowników forum DarkMachine. Zaloguj się lub załóż darmowe konto na forum aby uzyskać dostęp bez limitów.






Treść widoczna tylko dla użytkowników forum DarkMachine. Zaloguj się lub załóż darmowe konto na forum aby uzyskać dostęp bez limitów.




BRAK HASŁA
michas85pl jest nieaktywny  
Stare 10-10-2015, 18:15   #13
Hemsworth
Mistrzunio
 
Awatar Hemsworth
 
Info o Hemsworth
Dołączył: Sep 2015
Skąd: Warszawa
Wiek: 31
Postów: 163

Podziękowano:
0 razy

Domyślnie

Strażnicy Galaktyki / Guardians of the Galaxy (2014) MULTI 1080p BluRay x264 DTS-WiZARDS | Lektor PL



Treść widoczna tylko dla użytkowników forum DarkMachine. Zaloguj się lub załóż darmowe konto na forum aby uzyskać dostęp bez limitów.






Treść widoczna tylko dla użytkowników forum DarkMachine. Zaloguj się lub załóż darmowe konto na forum aby uzyskać dostęp bez limitów.






Treść widoczna tylko dla użytkowników forum DarkMachine. Zaloguj się lub załóż darmowe konto na forum aby uzyskać dostęp bez limitów.






Treść widoczna tylko dla użytkowników forum DarkMachine. Zaloguj się lub załóż darmowe konto na forum aby uzyskać dostęp bez limitów.



Hemsworth jest nieaktywny  
Stare 11-10-2015, 08:44   #14
Motylek
VIP


 
Awatar Motylek
 
Info o Motylek
Dołączył: Aug 2011
Postów: 18,661

Podziękowano:
100 razy

Domyślnie

Strażnicy Galaktyki / Guardians of the Galaxy (2014) 48 FPS IMAX 1080p.CUSTOM.BluRay.x264.DTS-HD.MA.7.1.AC3-LEON 345 | Lektor,Dubbing i Napisy PL

Spoiler:
Format : Matroska
Format version : Version 4 / Version 2
File size : 22.1 GiB
Duration : 2h 0mn
Overall bit rate mode : Variable
Overall bit rate : 26.1 Mbps
Movie name : Guardians.of.the.Galaxy.2014.PL.1080p.BDRip(48FPS) Custom.Leon345
Encoded date : UTC 2015-10-08 11:37:23
Writing application : mkvmerge v8.3.0 ('Over the Horizon') 64bit
Writing library : libebml v1.3.1 + libmatroska v1.4.2
Attachment : Yes / Yes / Yes

Video
ID : 1
Format : AVC
Format/Info : Advanced Video Codec
Format profile : High@L4.1
Format settings, CABAC : Yes
Format settings, ReFrames : 4 frames
Codec ID : V_MPEG4/ISO/AVC
Duration : 2h 0mn
Nominal bit rate : 18.1 Mbps
Width : 1 920 pixels
Height : 1 080 pixels
Display aspect ratio : 16:9 (2.40:1 , 1.78:1)
Frame rate mode : Constant
Frame rate : 47.923 fps
Original frame rate : 47.952 fps
Color space : YUV
Chroma subsampling : 4:2:0
Bit depth : 8 bits
Scan type : Progressive
Bits/(Pixel*Frame) : 0.182
Writing library : x264
Encoding settings : cabac=1 / ref=4 / rc=2pass
Default : Yes
Forced : No

Audio #1
ID : 2
Format : AC-3
Format/Info : Audio Coding 3
Mode extension : CM (complete main)
Format settings, Endianness : Big
Codec ID : A_AC3
Duration : 2h 0mn
Bit rate mode : Constant
Bit rate : 640 Kbps
Channel(s) : 6 channels
Channel positions : Front: L C R, Side: L R, LFE
Sampling rate : 48.0 KHz
Bit depth : 16 bits
Compression mode : Lossy
Stream size : 553 MiB (2%)
Title : AC3 5.1 Lektor PL Custom
Language : Polish
Default : Yes
Forced : Yes

Audio #2
ID : 3
Format : AC-3
Format/Info : Audio Coding 3
Mode extension : CM (complete main)
Format settings, Endianness : Big
Codec ID : A_AC3
Duration : 2h 0mn
Bit rate mode : Constant
Bit rate : 640 Kbps
Channel(s) : 6 channels
Channel positions : Front: L C R, Side: L R, LFE
Sampling rate : 48.0 KHz
Bit depth : 16 bits
Compression mode : Lossy
Stream size : 553 MiB (2%)
Title : AC3 5.1 Dubbing PL
Language : Polish
Default : No
Forced : No

Audio #3
ID : 4
Format : AC-3
Format/Info : Audio Coding 3
Mode extension : CM (complete main)
Format settings, Endianness : Big
Codec ID : A_AC3
Duration : 2h 0mn
Bit rate mode : Constant
Bit rate : 640 Kbps
Channel(s) : 6 channels
Channel positions : Front: L C R, Side: L R, LFE
Sampling rate : 48.0 KHz
Bit depth : 16 bits
Compression mode : Lossy
Stream size : 553 MiB (2%)
Title : AC3 5.1
Language : English
Default : No
Forced : No

Audio #4
ID : 5
Format : DTS
Format/Info : Digital Theater Systems
Mode : 16
Format settings, Endianness : Big
Codec ID : A_DTS
Duration : 2h 0mn
Bit rate mode : Constant
Bit rate : 1 510 Kbps
Channel(s) : 6 channels
Channel positions : Front: L C R, Side: L R, LFE
Sampling rate : 48.0 KHz
Bit depth : 24 bits
Compression mode : Lossy
Stream size : 1.27 GiB (6%)
Title : DTS 5.1 Lektor PL Custom
Language : Polish
Default : No
Forced : No

Audio #5
ID : 6
Format : DTS
Format/Info : Digital Theater Systems
Format profile : MA / Core
Mode : 16
Format settings, Endianness : Big
Codec ID : A_DTS
Duration : 2h 0mn
Bit rate mode : Variable
Bit rate : 4617 / 1 509 Kbps
Channel(s) : 8 channels / 6 channels
Channel positions : Front: L C R, Side: L R, Back: L R, LFE / Front: L C R, Side: L R, LFE
Sampling rate : 48.0 KHz
Bit depth : 24 bits
Compression mode : Lossless / Lossy
Title : DTS-HD MA 7.1
Language : English
Default : No
Forced : No

Text #1
ID : 7
Format : UTF-8
Codec ID : S_TEXT/UTF8
Codec ID/Info : UTF-8 Plain Text
Language : Polish
Default : No
Forced : No

Text #2
ID : 8
Format : UTF-8
Codec ID : S_TEXT/UTF8
Codec ID/Info : UTF-8 Plain Text
Language : English
Default : No
Forced : No



Source: [Thx]
A/V - Guardians of the Galaxy (2014) [IMAX Edition] Blu-ray 3D EUR 1080p AVC DD5.1-NiP
Dubbing PL - BD
Lektor PL - TV custom 5.1 Leon 345





Treść widoczna tylko dla użytkowników forum DarkMachine. Zaloguj się lub załóż darmowe konto na forum aby uzyskać dostęp bez limitów.



Motylek jest nieaktywny  
Stare 18-11-2015, 18:31   #15
luloczek
Maniakalny Maniak
 
Awatar luloczek
 
Info o luloczek
Dołączył: Sep 2013
Skąd: Dominikana
Postów: 5,217

Podziękowano:
11 razy

Domyślnie


Strażnicy Galaktyki / Guardians of the Galaxy (2014)
PL.720p.BluRay.x264.AC3-K12 / Lektor PL



DANE TECHNICZNE:



Treść widoczna tylko dla użytkowników forum DarkMachine. Zaloguj się lub załóż darmowe konto na forum aby uzyskać dostęp bez limitów.




OPIS UPLOADU:



Treść widoczna tylko dla użytkowników forum DarkMachine. Zaloguj się lub załóż darmowe konto na forum aby uzyskać dostęp bez limitów.





POBIERZ LINKI

CATSHARE



Treść widoczna tylko dla użytkowników forum DarkMachine. Zaloguj się lub załóż darmowe konto na forum aby uzyskać dostęp bez limitów.




RAPIDU



Treść widoczna tylko dla użytkowników forum DarkMachine. Zaloguj się lub załóż darmowe konto na forum aby uzyskać dostęp bez limitów.




FILESHARK



Treść widoczna tylko dla użytkowników forum DarkMachine. Zaloguj się lub załóż darmowe konto na forum aby uzyskać dostęp bez limitów.



luloczek jest nieaktywny  
Słowa kluczowe związane z tematem Strażnicy Galaktyki / Guardians of the Galaxy (2014): Strażnicy Galaktyki / Guardians of the Galaxy (2014) download, Strażnicy Galaktyki / Guardians of the Galaxy (2014) peb, Strażnicy Galaktyki / Guardians of the Galaxy (2014) do pobrania, Strażnicy Galaktyki / Guardians of the Galaxy (2014) chomikuj, Strażnicy Galaktyki / Guardians of the Galaxy (2014) za darmo, Strażnicy Galaktyki / Guardians of the Galaxy (2014) precyl, Strażnicy Galaktyki / Guardians of the Galaxy (2014) do ściągnięcia, Strażnicy Galaktyki / Guardians of the Galaxy (2014) free, Strażnicy Galaktyki / Guardians of the Galaxy (2014) darkwarez, Strażnicy Galaktyki / Guardians of the Galaxy (2014) rar, Strażnicy Galaktyki / Guardians of the Galaxy (2014) filestube, Strażnicy Galaktyki / Guardians of the Galaxy (2014) warez, Strażnicy Galaktyki / Guardians of the Galaxy (2014) portal, Strażnicy Galaktyki / Guardians of the Galaxy (2014) bez płacenia, Strażnicy Galaktyki / Guardians of the Galaxy (2014) elitewarez, Strażnicy Galaktyki / Guardians of the Galaxy (2014) no limits, Strażnicy Galaktyki / Guardians of the Galaxy (2014) bez premium, Strażnicy Galaktyki / Guardians of the Galaxy (2014) bez limitów, Strażnicy Galaktyki / Guardians of the Galaxy (2014) bez konta premium

Podobne wątki do: Strażnicy Galaktyki / Guardians of the Galaxy (2014)
Wątek Autor wątku Forum Odpowiedzi Ostatni post / autor
Strażnicy Marzeń / Rise of the Guardians (2012) WSZtm Bajki / Animacje 23 09-05-2016 17:14
Strażnicy marzeń / Rise of the Guardians (2012) Motylek Filmy 3D 6 20-11-2015 21:56
Strażnicy Galaktyki / Guardians of the Galaxy (2014) markusdwa Napisy / Inne wersje językowe 18 02-12-2014 10:19
Strażnicy marzeń / Rise of the Guardians (2012) hombbre Filmy HD, DVD, Blu-Ray 17 09-02-2014 13:47
Strażnicy marzeń / Rise of the Guardians (2012) Diabeł DMF Filmy 3D 1 22-03-2013 20:41

Narzędzia wątku


O nas
DarkMachine jest najlepszym i najstarszym forum wielotematycznym oraz forum młodzieżowym z nastawieniem na rozrywkę, rozmowy, wymianę doświadczeniami, download, pobieranie, ściąganie, wzajemną pomoc. Tylko u nas odnajdziesz wszystko czego potrzebujesz i szukasz w sieci - gry, programy, muzykę, filmy, seriale, książki, komiksy, audiobooki, torrenty, p2m. Na forum możesz też odnaleźć tematyczne działy przeznaczone do rozmów i rozwiązywania problemów naszych użytkowników.

Użytkownicy naszego serwisu wymieniają się plikami z hostingów: Rapidshare, Turbobit, Freakshare, Chomikuj, Bitshare, Uploading, Letitbit, Uploaded, Hotfile, Netload, Mediafire, 4shared, Zshare, FilePost, Depositfiles, Filefactory, Rapidgator, Hellshare, Hitfile, Extabit, Crocko, Ifile, ShareFlare, BayFiles, Jumbofiles, Vip-File, Share-Online, Uploadfloor, Oron, Fiberupload, Filevelocity, Filesonic, Megaupload, Megavideo, VideoBB, Putlocker, Ifilez, Fastshare ale to nie wszystkie hostingi z których korzystają nasi użytkownicy.

Tematyka forum może przypominać takie serwisy jak: forumowisko, peb, darkwarez, precyl, exsite, megawarez, zajefajna, uploaduj, elitewarez, ajo, piratebay, filestube, p2m.

Powered by vBulletin®
Copyright © DarkMachine.pl 2006 - 2015
Czasy w strefie GMT +1. Teraz jest 16:10.


Change forum language


Change forum style



BTC: 1HsAvx1joQNEYagXcR8mYNLKoLQDGDQZwN | LTC: Lbz4rJUrkKgAKveWEMGWArL2s8horbyN3o | PPC: PQiSxBo49kKzvQN3RAnUc3pqi1xRAXGsjh