DarkMachine.pl - Forum wielotematyczne

Wróć   DarkMachine.pl - Forum wielotematyczne » Giełda Download » Filmy » Filmy HD, DVD, Blu-Ray


Filmy HD, DVD, Blu-Ray Filmy w najwyższej jakości o dużych rozdzielczościach ...


Polecamy na forum


 
Wersja językowa Narzędzia wątku

Przeglądasz temat: Before the Fall (2016)
Sprawdź też: Neruda (2016) | 96 Souls (2016)
Tagi do tematu: 2016
Poleć ten temat na:
 
 
        
  
Stare 30-05-2017, 10:40   #1
rafi11a

 
Awatar rafi11a
 
Info o rafi11a
Dołączył: Jun 2009
Wiek: 30
Postów: 19,211

Podziękowano:
18 razy

Domyślnie Before the Fall (2016)

Before the Fall (2016)

Before the Fall (2016)

Opis:

Premiera (Świat) 25 września 2016 r.
Kraj produkcji USA
Czas trwania 100 min.
Gatunek Dramat, Romans

Duma i Uprzedzenie Jane Austin w nowoczesnych realiach Virginii. Ben Bennet jest zamożnym aroganckim adwokatem, który nieświadomie obraża Lee Darcy, a pracownika fabryki niesłusznie oskarża o przemoc domową. Obaj mężczyźni zaczynają do siebie pałać niechęcią, a Ben zakochuje się w Lee.

Before the Fall 2016 1080p WEB-DL AAC2 0 H264-FGT

Dane uploadu

Format: MATROSKA at 4 632 Kbp/s
Length: 3.13 GiB for 1h 36min 42sec

Video: H264 Visual at Kbp/s
Aspect: 1912x792 at 24.00 fps

Audio: AAC at Kbp/s
Info: 2 channels stereo, 48.00 KHz
Download



Treść widoczna tylko dla użytkowników forum DarkMachine. Zaloguj się lub załóż darmowe konto na forum aby uzyskać dostęp bez limitów.






Treść widoczna tylko dla użytkowników forum DarkMachine. Zaloguj się lub załóż darmowe konto na forum aby uzyskać dostęp bez limitów.






Treść widoczna tylko dla użytkowników forum DarkMachine. Zaloguj się lub załóż darmowe konto na forum aby uzyskać dostęp bez limitów.






Treść widoczna tylko dla użytkowników forum DarkMachine. Zaloguj się lub załóż darmowe konto na forum aby uzyskać dostęp bez limitów.





Ostatnio edytowane przez rafi11a ; 30-05-2017 o 11:38
rafi11a jest nieaktywny  
Stare 30-05-2017, 11:02   #2
Motylek
VIP


 
Awatar Motylek
 
Info o Motylek
Dołączył: Aug 2011
Postów: 19,071

Podziękowano:
100 razy

Domyślnie

Before the Fall (2016) 1080p.WEB-DL.AAC2.0.H264-FGT

Spoiler:
Video
ID : 0
Format : MPEG-4 Visual
Format profile : Simple@L5
Format settings, BVOP : No
Format settings, QPel : No
Format settings, GMC : No warppoints
Format settings, Matrix : Default (H.263)
Codec ID : XVID
Codec ID/Hint : XviD
Duration : 1h 36mn
Bit rate : 2 342 Kbps
Width : 720 pixels
Height : 304 pixels
Display aspect ratio : 2.40:1
Frame rate : 23.976 fps
Color space : YUV
Chroma subsampling : 4:2:0
Bit depth : 8 bits
Scan type : Progressive
Compression mode : Lossy
Bits/(Pixel*Frame) : 0.446
Stream size : 1.58 GiB (92%)
Writing library : Lavc57.16.101

Audio
ID : 1
Format : MPEG Audio
Format version : Version 1
Format profile : Layer 3
Mode : Joint stereo
Mode extension : MS Stereo
Codec ID : 55
Codec ID/Hint : MP3
Duration : 1h 36mn
Bit rate mode : Constant
Bit rate : 192 Kbps
Channel(s) : 2 channels
Sampling rate : 48.0 KHz
Compression mode : Lossy
Stream size : 133 MiB (8%)
Alignment : Aligned on interleaves
Interleave, duration : 24 ms (0.58 video frame)
Interleave, preload duration : 504 ms
Writing library : LAME3.99.5





Treść widoczna tylko dla użytkowników forum DarkMachine. Zaloguj się lub załóż darmowe konto na forum aby uzyskać dostęp bez limitów.



Motylek jest nieaktywny  
Słowa kluczowe związane z tematem Before the Fall (2016): Before the Fall (2016) download, Before the Fall (2016) peb, Before the Fall (2016) do pobrania, Before the Fall (2016) chomikuj, Before the Fall (2016) za darmo, Before the Fall (2016) precyl, Before the Fall (2016) do ściągnięcia, Before the Fall (2016) free, Before the Fall (2016) darkwarez, Before the Fall (2016) rar, Before the Fall (2016) filestube, Before the Fall (2016) warez, Before the Fall (2016) portal, Before the Fall (2016) bez płacenia, Before the Fall (2016) elitewarez, Before the Fall (2016) no limits, Before the Fall (2016) bez premium, Before the Fall (2016) bez limitów, Before the Fall (2016) bez konta premium

Narzędzia wątku


O nas
DarkMachine jest najlepszym i najstarszym forum wielotematycznym oraz forum młodzieżowym z nastawieniem na rozrywkę, rozmowy, wymianę doświadczeniami, download, pobieranie, ściąganie, wzajemną pomoc. Tylko u nas odnajdziesz wszystko czego potrzebujesz i szukasz w sieci - gry, programy, muzykę, filmy, seriale, książki, komiksy, audiobooki, torrenty, p2m. Na forum możesz też odnaleźć tematyczne działy przeznaczone do rozmów i rozwiązywania problemów naszych użytkowników.

Użytkownicy naszego serwisu wymieniają się plikami z hostingów: Rapidshare, Turbobit, Freakshare, Chomikuj, Bitshare, Uploading, Letitbit, Uploaded, Hotfile, Netload, Mediafire, 4shared, Zshare, FilePost, Depositfiles, Filefactory, Rapidgator, Hellshare, Hitfile, Extabit, Crocko, Ifile, ShareFlare, BayFiles, Jumbofiles, Vip-File, Share-Online, Uploadfloor, Oron, Fiberupload, Filevelocity, Filesonic, Megaupload, Megavideo, VideoBB, Putlocker, Ifilez, Fastshare ale to nie wszystkie hostingi z których korzystają nasi użytkownicy.

Tematyka forum może przypominać takie serwisy jak: forumowisko, peb, darkwarez, precyl, exsite, megawarez, zajefajna, uploaduj, elitewarez, ajo, piratebay, filestube, p2m.

Powered by vBulletin®
Copyright © DarkMachine.pl 2006 - 2015
Czasy w strefie GMT +1. Teraz jest 02:31.


Change forum language


Change forum style



BTC: 1HsAvx1joQNEYagXcR8mYNLKoLQDGDQZwN | LTC: Lbz4rJUrkKgAKveWEMGWArL2s8horbyN3o | PPC: PQiSxBo49kKzvQN3RAnUc3pqi1xRAXGsjh