DarkMachine.pl - Forum wielotematyczne

Wróć   DarkMachine.pl - Forum wielotematyczne » Giełda Download » Filmy » Filmy HD, DVD, Blu-Ray


Filmy HD, DVD, Blu-Ray Filmy w najwyższej jakości o dużych rozdzielczościach ...


Polecamy na forum


 
Wersja językowa Narzędzia wątku

Przeglądasz temat: Big Bear (2017)
Sprawdź też: Meow (2017) | Last Rampage: The Escape of Gary Tison (2017)
Tagi do tematu: 2017, bear, big
Poleć ten temat na:
 
 
        
  
Stare 22-09-2017, 10:29   #1
Motylek
VIP


 
Awatar Motylek
 
Info o Motylek
Dołączył: Aug 2011
Postów: 19,053

Podziękowano:
100 razy

Domyślnie Big Bear (2017)

Big Bear (2017)

Big Bear opowiada historię Joego, który niechętnie bierze udział w swoim wieczorze kawalerskim, ponieważ narzeczona rzuciła go dla innego.

Big Bear (2017) 1080p.WEB-DL.DD5.1.H264-FGT



Spoiler:
Video
ID : 1
Format : AVC
Format/Info : Advanced Video Codec
Format profile : High@L4
Format settings, CABAC : Yes
Format settings, ReFrames : 5 frames
Codec ID : V_MPEG4/ISO/AVC
Duration : 1 h 27 min
Bit rate : 4 443 kb/s
Width : 1 912 pixels
Height : 796 pixels
Display aspect ratio : 2.40:1
Frame rate mode : Constant
Frame rate : 23.976 (24000/1001) FPS
Color space : YUV
Chroma subsampling : 4:2:0
Bit depth : 8 bits
Scan type : Progressive
Bits/(Pixel*Frame) : 0.122
Stream size : 2.71 GiB (90%)
Title : Big.Bear.2017.1080p.WEB-DL.DD5.1.H264-FGT
Language : English
Default : Yes
Forced : No
Color range : Limited
Color primaries : BT.709
Transfer characteristics : BT.709
Matrix coefficients : BT.709

Audio
ID : 2
Format : AC-3
Format/Info : Audio Coding 3
Format settings, Endianness : Big
Codec ID : A_AC3
Duration : 1 h 27 min
Bit rate mode : Constant
Bit rate : 384 kb/s
Channel(s) : 6 channels
Channel positions : Front: L C R, Side: L R, LFE
Sampling rate : 48.0 kHz
Frame rate : 31.250 FPS (1536 spf)
Bit depth : 16 bits
Compression mode : Lossy
Delay relative to video : -42 ms
Stream size : 240 MiB (8%)
Title : Big.Bear.2017.1080p.WEB-DL.DD5.1.H264-FGT
Language : English
Service kind : Complete Main
Default : Yes
Forced : No

Text
ID : 3
Format : UTF-8
Codec ID : S_TEXT/UTF8
Codec ID/Info : UTF-8 Plain Text
Language : English
Default : Yes
Forced : No





Treść widoczna tylko dla użytkowników forum DarkMachine. Zaloguj się lub załóż darmowe konto na forum aby uzyskać dostęp bez limitów.



Motylek jest nieaktywny  
Słowa kluczowe związane z tematem Big Bear (2017): Big Bear (2017) download, Big Bear (2017) peb, Big Bear (2017) do pobrania, Big Bear (2017) chomikuj, Big Bear (2017) za darmo, Big Bear (2017) precyl, Big Bear (2017) do ściągnięcia, Big Bear (2017) free, Big Bear (2017) darkwarez, Big Bear (2017) rar, Big Bear (2017) filestube, Big Bear (2017) warez, Big Bear (2017) portal, Big Bear (2017) bez płacenia, Big Bear (2017) elitewarez, Big Bear (2017) no limits, Big Bear (2017) bez premium, Big Bear (2017) bez limitów, Big Bear (2017) bez konta premium

Podobne wątki do: Big Bear (2017)
Wątek Autor wątku Forum Odpowiedzi Ostatni post / autor
Two Lovers and a Bear (2017) rafi11a Napisy / Inne wersje językowe 1 12-01-2018 16:07
Two Lovers and a Bear (2017) rafi11a Filmy HD, DVD, Blu-Ray 1 12-01-2018 16:00
Big Bear (2017) rafi11a Napisy / Inne wersje językowe 0 22-09-2017 10:27
Grizzly Bear - Painted Ruins (2017) karmina Rock i Metal 0 31-08-2017 15:32
One Trick Grizzly - Bear Witness (2017) beersman Rock i Metal 0 18-03-2017 12:48

Narzędzia wątku


O nas
DarkMachine jest najlepszym i najstarszym forum wielotematycznym oraz forum młodzieżowym z nastawieniem na rozrywkę, rozmowy, wymianę doświadczeniami, download, pobieranie, ściąganie, wzajemną pomoc. Tylko u nas odnajdziesz wszystko czego potrzebujesz i szukasz w sieci - gry, programy, muzykę, filmy, seriale, książki, komiksy, audiobooki, torrenty, p2m. Na forum możesz też odnaleźć tematyczne działy przeznaczone do rozmów i rozwiązywania problemów naszych użytkowników.

Użytkownicy naszego serwisu wymieniają się plikami z hostingów: Rapidshare, Turbobit, Freakshare, Chomikuj, Bitshare, Uploading, Letitbit, Uploaded, Hotfile, Netload, Mediafire, 4shared, Zshare, FilePost, Depositfiles, Filefactory, Rapidgator, Hellshare, Hitfile, Extabit, Crocko, Ifile, ShareFlare, BayFiles, Jumbofiles, Vip-File, Share-Online, Uploadfloor, Oron, Fiberupload, Filevelocity, Filesonic, Megaupload, Megavideo, VideoBB, Putlocker, Ifilez, Fastshare ale to nie wszystkie hostingi z których korzystają nasi użytkownicy.

Tematyka forum może przypominać takie serwisy jak: forumowisko, peb, darkwarez, precyl, exsite, megawarez, zajefajna, uploaduj, elitewarez, ajo, piratebay, filestube, p2m.

Powered by vBulletin®
Copyright © DarkMachine.pl 2006 - 2015
Czasy w strefie GMT +1. Teraz jest 17:25.


Change forum language


Change forum style



BTC: 1HsAvx1joQNEYagXcR8mYNLKoLQDGDQZwN | LTC: Lbz4rJUrkKgAKveWEMGWArL2s8horbyN3o | PPC: PQiSxBo49kKzvQN3RAnUc3pqi1xRAXGsjh