DarkMachine.pl - Forum wielotematyczne

Wróć   DarkMachine.pl - Forum wielotematyczne » Giełda Download » Filmy » Filmy HD, DVD, Blu-Ray


Filmy HD, DVD, Blu-Ray Filmy w najwyższej jakości o dużych rozdzielczościach ...


Polecamy na forum


 
Wersja językowa Narzędzia wątku

Przeglądasz temat: Lady Bird (2017)
Sprawdź też: Zlote wyjscie / Golden Exits (2017) | Thank You for Your Service (2017)
Tagi do tematu: 2017, bird, lady
Poleć ten temat na:
 
 
        
  
Stare 13-02-2018, 08:25   #1
rafi11a

 
Awatar rafi11a
 
Info o rafi11a
Dołączył: Jun 2009
Wiek: 30
Postów: 18,402

Podziękowano:
17 razy

Domyślnie Lady Bird (2017)

Lady Bird (2017)

Lady Bird (2017)

Opis:

reżyseria: Greta Gerwig
scenariusz: Greta Gerwig
gatunek: Komedia
produkcja: USA
premiera: 2 marca 2018 (Polska) 1 września 2017 (świat)

Rok z życia zbuntowanej dziewczyny, która uczy się w katolickim liceum.
Lady Bird (2017) 720p.WEB-DL.DD5.1.H264-CMRG

Dane uploadu

Release Name: Lady.Bird.2017.720p.WEB-DL.DD5.1.H264-CMRG
Size: 2.92 GiB
Video: MKV | 1280×688 | 3 994 kb/s
Audio: English | AC-3 | 384 kb/s
Runtime: 1 h 33 min
Subtitles: N/A
Download



Treść widoczna tylko dla użytkowników forum DarkMachine. Zaloguj się lub załóż darmowe konto na forum aby uzyskać dostęp bez limitów.






Treść widoczna tylko dla użytkowników forum DarkMachine. Zaloguj się lub załóż darmowe konto na forum aby uzyskać dostęp bez limitów.






Treść widoczna tylko dla użytkowników forum DarkMachine. Zaloguj się lub załóż darmowe konto na forum aby uzyskać dostęp bez limitów.



rafi11a jest nieaktywny  
Stare 13-02-2018, 14:47   #2
Motylek
VIP


 
Awatar Motylek
 
Info o Motylek
Dołączył: Aug 2011
Postów: 18,454

Podziękowano:
99 razy

Domyślnie

Lady Bird (2017) 720p.WEB-DL.DD5.1.H264-FGT

Spoiler:
Video
ID : 1
Format : AVC
Format/Info : Advanced Video Codec
Format profile : High@L3.1
Format settings : 2 Ref Frames
Format settings, CABAC : No
Format settings, ReFrames : 2 frames
Codec ID : V_MPEG4/ISO/AVC
Duration : 1 h 33 min
Bit rate : 4 081 kb/s
Width : 1 280 pixels
Height : 688 pixels
Display aspect ratio : 1.85:1
Frame rate mode : Constant
Frame rate : 23.976 (24000/1001) FPS
Color space : YUV
Chroma subsampling : 4:2:0
Bit depth : 8 bits
Scan type : Progressive
Bits/(Pixel*Frame) : 0.193
Stream size : 2.67 GiB (91%)
Title : Lady.Bird.2017.720p.WEB-DL.DD5.1.H264-FGT
Language : English
Default : Yes
Forced : No
Color range : Limited
Color primaries : BT.709
Transfer characteristics : BT.709
Matrix coefficients : BT.709

Audio
ID : 2
Format : AC-3
Format/Info : Audio Coding 3
Codec ID : A_AC3
Duration : 1 h 33 min
Bit rate mode : Constant
Bit rate : 384 kb/s
Channel(s) : 6 channels
Channel positions : Front: L C R, Side: L R, LFE
Sampling rate : 48.0 kHz
Frame rate : 31.250 FPS (1536 SPF)
Bit depth : 16 bits
Compression mode : Lossy
Delay relative to video : -42 ms
Stream size : 257 MiB (9%)
Title : Lady.Bird.2017.720p.WEB-DL.DD5.1.H264-FGT
Language : English
Service kind : Complete Main
Default : Yes






Treść widoczna tylko dla użytkowników forum DarkMachine. Zaloguj się lub załóż darmowe konto na forum aby uzyskać dostęp bez limitów.



Motylek jest teraz aktywny  
Stare 13-02-2018, 16:23   #3
bubbly
Maniakalny Maniak
 
Awatar bubbly
 
Info o bubbly
Dołączył: May 2008
Postów: 2,797

Podziękowano:
1 raz

Domyślnie

Lady Bird (2017) PL-SUB.1080p.AMZN.WEB-DL.DD.5.1.H.264-SiGMA / POLSKIE NAPISY

Dane techniczne:

Format : Matroska at 9.158 kb/s
Length : 6,00 GB for 1 h 33 min 44s 661 ms

Video #0 : AVC at 8.516 kb/s
Aspect : 1920 x 1040 (1.850) at 23.976 fps

Audio #0 : E-AC-3 at 640 kb/s
Infos : 6 kanałów, 48,0 kHz
Language : en

Text #0 : UTF-8
Language : en

Text #1 : UTF-8
Language : pl
Dane uploadu:

Wielkość: 6.00 GB
Zawartość: plik .mkv, .rar, .srt
Wersja językowa: angielski, wmuksowane polskie napisy, polskie napisy osobno w paczce
Wielkość partu: 2 GB
Hasło: brak
Dane naprawcze: brak
Zrzut ekranu:

Spoiler:

Lady Bird (2017)




Linki
można pobierać naprzemiennie




Treść widoczna tylko dla użytkowników forum DarkMachine. Zaloguj się lub załóż darmowe konto na forum aby uzyskać dostęp bez limitów.



bubbly jest nieaktywny  
Stare 13-02-2018, 18:05   #4
|AQ|
Maniakalny Maniak
 
Awatar |AQ|
 
Info o |AQ|
Dołączył: Aug 2014
Skąd: Boise
Postów: 2,781

Podziękowano:
3 razy

Domyślnie

Lady Bird (2017) SUB.PL.720p.WEB-DL.DD5.1.H264-FGT / NAPISY PL




Format : Matroska at 4 467 Kbps
Length : 2.92 GiB for 1h 33mn 44s 704ms

Video #0 : AVC at 3 994 Kbps
Aspect : 1280 x 688 (1.860) at 23.976 fps

Audio #0 : AC-3 at 384 Kbps
Infos : 6 channels, 48.0 KHz
Language : en



Treść widoczna tylko dla użytkowników forum DarkMachine. Zaloguj się lub załóż darmowe konto na forum aby uzyskać dostęp bez limitów.



|AQ| jest teraz aktywny  
Stare 14-02-2018, 12:25   #5
novy2
Linker
 
Awatar novy2
 
Info o novy2
Dołączył: May 2017
Skąd: Wielkopolska
Postów: 7,661

Podziękowano:
8 razy

Domyślnie

Lady Bird (2017) PL.SUBBED.720p.WEB-DL.XViD.AC3-MORS / Wtopione Napisy PL

Spoiler:
Lady Bird (2017)

reżyseria: Greta Gerwig
scenariusz: Greta Gerwig
gatunek: Komedia
produkcja: USA
premiera: 2 marca 2018 (Polska) 1 września 2017 (świat)

Christine „Lady Bird” McPherson (Saoirse Ronan) ze wszystkich swych młodzieńczych sił sprzeciwia się matce (Laurie Metcalf). Kobiecie silnej, wyrazistej o jasno sprecyzowanych poglądach, pracującej bez wytchnienia jako pielęgniarka po tym, jak jej mąż (Tracy Letts) stracił pracę. Warto wspomnieć, że bunt tytułowej Lady Bird to tak naprawdę walka z samą sobą, bowiem niezależność nastolatki jest lustrzanym odbiciem charakteru matki.
Podgląd

Lady Bird (2017)



Dane techniczne:

Format : AVI at 3 697 kb/s
Length : 2.42 GiB for 1 h 33 min 44 s 619 ms

Video #0 : MPEG-4 Visual at 3 302 kb/s
Aspect : 1280 x 688 (1.860) at 23.976 fps

Audio #0 : AC-3 at 384 kb/s
Infos : 6 channels, 48.0 kHz
Download:



Treść widoczna tylko dla użytkowników forum DarkMachine. Zaloguj się lub załóż darmowe konto na forum aby uzyskać dostęp bez limitów.





Treść widoczna tylko dla użytkowników forum DarkMachine. Zaloguj się lub załóż darmowe konto na forum aby uzyskać dostęp bez limitów.





Treść widoczna tylko dla użytkowników forum DarkMachine. Zaloguj się lub załóż darmowe konto na forum aby uzyskać dostęp bez limitów.



novy2 jest nieaktywny  
Stare 15-02-2018, 06:18   #6
rafi11a

 
Awatar rafi11a
 
Info o rafi11a
Dołączył: Jun 2009
Wiek: 30
Postów: 18,402

Podziękowano:
17 razy

Domyślnie

Lady Bird (2017) PLSUB.720p.WEB-DL.DD5.1.H264-FGT / Napisy PL

SCREEN:
Spoiler:
Lady Bird (2017)



Dane uploadu

Format : Matroska at 4.467 Kb/s
Length : 2,92 GB for 1h 33 min. 44s 704ms

Video #0 : AVC at 3.994 Kb/s
Aspect : 1280 x 688 (1.860) at 23.976 fps

Audio #0 : AC-3 at 384 Kb/s
Infos : 6 kanałów, 48,0 KHz
Language : en

Text #0 : UTF-8
Language : pl
Napisy PL Wmuksowane
Download



Treść widoczna tylko dla użytkowników forum DarkMachine. Zaloguj się lub załóż darmowe konto na forum aby uzyskać dostęp bez limitów.






Treść widoczna tylko dla użytkowników forum DarkMachine. Zaloguj się lub załóż darmowe konto na forum aby uzyskać dostęp bez limitów.






Treść widoczna tylko dla użytkowników forum DarkMachine. Zaloguj się lub załóż darmowe konto na forum aby uzyskać dostęp bez limitów.






Treść widoczna tylko dla użytkowników forum DarkMachine. Zaloguj się lub załóż darmowe konto na forum aby uzyskać dostęp bez limitów.




Lady Bird (2017) PLSUB.1080p.WEB-DL.X264.AC3-EVO / Napisy PL

SCREEN:
Spoiler:
Lady Bird (2017)



Dane uploadu

Format : Matroska at 5.166 Kb/s
Length : 3,38 GB for 1h 33 min. 44s 661ms

Video #0 : AVC at 4.679 Kb/s
Aspect : 1920 x 1042 (1.845) at 23.976 fps

Audio #0 : AC-3 at 384 Kb/s
Infos : 6 kanałów, 48,0 KHz
Language : en

Text #0 : UTF-8
Language : pl
Napisy PL Wmuksowane
Download



Treść widoczna tylko dla użytkowników forum DarkMachine. Zaloguj się lub załóż darmowe konto na forum aby uzyskać dostęp bez limitów.






Treść widoczna tylko dla użytkowników forum DarkMachine. Zaloguj się lub załóż darmowe konto na forum aby uzyskać dostęp bez limitów.






Treść widoczna tylko dla użytkowników forum DarkMachine. Zaloguj się lub załóż darmowe konto na forum aby uzyskać dostęp bez limitów.






Treść widoczna tylko dla użytkowników forum DarkMachine. Zaloguj się lub załóż darmowe konto na forum aby uzyskać dostęp bez limitów.



rafi11a jest nieaktywny  
Stare 24-02-2018, 10:20   #7
novy2
Linker
 
Awatar novy2
 
Info o novy2
Dołączył: May 2017
Skąd: Wielkopolska
Postów: 7,661

Podziękowano:
8 razy

Domyślnie

Lady Bird (2017) PLSUBBED.720P.BRRip.XViD.AC3-OzW / Wtopione Napisy PL

Spoiler:
Lady Bird (2017)

reżyseria: Greta Gerwig
scenariusz: Greta Gerwig
gatunek: Komedia
produkcja: USA
premiera: 2 marca 2018 (Polska) 1 września 2017 (świat)

Christine „Lady Bird” McPherson (Saoirse Ronan) ze wszystkich swych młodzieńczych sił sprzeciwia się matce (Laurie Metcalf). Kobiecie silnej, wyrazistej o jasno sprecyzowanych poglądach, pracującej bez wytchnienia jako pielęgniarka po tym, jak jej mąż (Tracy Letts) stracił pracę. Warto wspomnieć, że bunt tytułowej Lady Bird to tak naprawdę walka z samą sobą, bowiem niezależność nastolatki jest lustrzanym odbiciem charakteru matki.
Podgląd

Lady Bird (2017)



Dane techniczne:

Format : AVI at 4.029 Kb/s
Length : 2,65 GB for 1h 34 min. 4s 690ms

Video #0 : MPEG-4 Visual at 3.381 Kb/s
Aspect : 1280 x 690 (1.855) at 23.976 fps

Audio #0 : AC-3 at 640 Kb/s
Infos : 6 kanałów, 48,0 KHz
Download:



Treść widoczna tylko dla użytkowników forum DarkMachine. Zaloguj się lub załóż darmowe konto na forum aby uzyskać dostęp bez limitów.





Treść widoczna tylko dla użytkowników forum DarkMachine. Zaloguj się lub załóż darmowe konto na forum aby uzyskać dostęp bez limitów.





Treść widoczna tylko dla użytkowników forum DarkMachine. Zaloguj się lub załóż darmowe konto na forum aby uzyskać dostęp bez limitów.





Treść widoczna tylko dla użytkowników forum DarkMachine. Zaloguj się lub załóż darmowe konto na forum aby uzyskać dostęp bez limitów.



novy2 jest nieaktywny  
Stare 25-02-2018, 20:26   #8
bubbly
Maniakalny Maniak
 
Awatar bubbly
 
Info o bubbly
Dołączył: May 2008
Postów: 2,797

Podziękowano:
1 raz

Domyślnie

Lady Bird (2017) PL-SUB.720p.BluRay.x264.DTS-HDChina / POLSKIE NAPISY

Dane techniczne:

Format : Matroska at 6.504 kb/s
Length : 4,27 GB for 1 h 34 min 4s 681 ms

Video #0 : AVC at 5.000 kb/s
Aspect : 1280 x 690 (1.855) at 23.976 fps

Audio #0 : DTS at 1.509 kb/s
Infos : 6 kanałów, 48,0 kHz
Language : en

Text #0 : UTF-8
Language : en

Text #1 : UTF-8
Language : pl
Dane uploadu:

Wielkość: 4.27 GB
Zawartość: plik .mkv
Wersja językowa: angielski, wmuksowane polskie napisy
Zrzut ekranu:

Spoiler:

Lady Bird (2017)




Linki
można pobierać naprzemiennie




Treść widoczna tylko dla użytkowników forum DarkMachine. Zaloguj się lub załóż darmowe konto na forum aby uzyskać dostęp bez limitów.




Lady Bird (2017) PL-SUB.1080p.BluRay.x264.DTS-HDChina / POLSKIE NAPISY

Dane techniczne:

Format : Matroska at 13,0 Mb/s
Length : 8,56 GB for 1 h 34 min 4s 681 ms

Video #0 : AVC at 11,5 Mb/s
Aspect : 1920 x 1036 (1.853) at 23.976 fps

Audio #0 : DTS at 1.509 kb/s
Infos : 6 kanałów, 48,0 kHz
Language : en

Text #0 : PGS
Language : en

Text #1 : UTF-8
Language : zh

Text #2 : UTF-8
Language : pl
Dane uploadu:

Wielkość: 8.56 GB
Zawartość: plik .mkv, .rar, .srt
Wersja językowa: angielski, wmuksowane polskie napisy, polskie napisy osobno w paczce
Wielkość partu: 2 GB
Hasło: brak
Dane naprawcze: brak
Zrzut ekranu:

Spoiler:

Lady Bird (2017)




Linki
można pobierać naprzemiennie




Treść widoczna tylko dla użytkowników forum DarkMachine. Zaloguj się lub załóż darmowe konto na forum aby uzyskać dostęp bez limitów.



bubbly jest nieaktywny  
Stare 01-03-2018, 14:36   #9
Motylek
VIP


 
Awatar Motylek
 
Info o Motylek
Dołączył: Aug 2011
Postów: 18,454

Podziękowano:
99 razy

Domyślnie

Lady Bird (2017) 1080p.BluRay.REMUX.AVC.DTS-HD.MA.5.1-FGT | NAPiSY PL




Informacje o pliku video:
Spoiler:
Video
ID : 1
Format : AVC
Format/Info : Advanced Video Codec
Format profile : High@L4.1
Format settings : CABAC / 4 Ref Frames
Format settings, CABAC : Yes
Format settings, ReFrames : 4 frames
Codec ID : V_MPEG4/ISO/AVC
Duration : 1 h 34 min
Bit rate mode : Variable
Bit rate : 19.0 Mb/s
Maximum bit rate : 37.0 Mb/s
Width : 1 920 pixels
Height : 1 080 pixels
Display aspect ratio : 16:9
Frame rate mode : Constant
Frame rate : 23.976 (24000/1001) FPS
Color space : YUV
Chroma subsampling : 4:2:0
Bit depth : 8 bits
Scan type : Progressive
Bits/(Pixel*Frame) : 0.381
Stream size : 12.5 GiB (79%)
Title : Lady.Bird.2017.1080p.BluRay.REMUX.AVC.DTS-HD.MA.5.1-FGT
Language : English
Default : No
Forced : No

Audio #1
ID : 2
Format : DTS
Format/Info : Digital Theater Systems
Format profile : MA / Core
Codec ID : A_DTS
Duration : 1 h 33 min
Bit rate mode : Variable / Constant
Bit rate : 3 228 kb/s / 1 509 kb/s
Channel(s) : 6 channels
Channel positions : Front: L C R, Side: L R, LFE
Sampling rate : 48.0 kHz
Frame rate : 93.750 FPS (512 SPF)
Bit depth : 24 bits
Compression mode : Lossless / Lossy
Stream size : 2.11 GiB (13%)
Title : Lady.Bird.2017.1080p.BluRay.REMUX.AVC.DTS-HD.MA.5.1-FGT
Language : English
Default : Yes
Forced : No

Audio #2
ID : 3
Format : DTS
Format/Info : Digital Theater Systems
Codec ID : A_DTS
Duration : 1 h 33 min
Bit rate mode : Constant
Bit rate : 1 509 kb/s
Channel(s) : 6 channels
Channel positions : Front: L C R, Side: L R, LFE
Sampling rate : 48.0 kHz
Frame rate : 93.750 FPS (512 SPF)
Bit depth : 24 bits
Compression mode : Lossy
Stream size : 1 011 MiB (6%)
Title : Lady.Bird.2017.1080p.BluRay.REMUX.AVC.DTS-HD.MA.5.1-FGT
Language : English
Default : No
Forced : No

Audio #3
ID : 4
Format : AC-3
Format/Info : Audio Coding 3
Codec ID : A_AC3
Duration : 1 h 34 min
Bit rate mode : Constant
Bit rate : 192 kb/s
Channel(s) : 2 channels
Channel positions : Front: L R
Sampling rate : 48.0 kHz
Frame rate : 31.250 FPS (1536 SPF)
Bit depth : 16 bits
Compression mode : Lossy
Stream size : 129 MiB (1%)
Title : Lady.Bird.2017.1080p.BluRay.REMUX.AVC.DTS-HD.MA.5.1-FGT
Language : English
Service kind : Complete Main
Default : No
Forced : No

Text #1
ID : 5
Format : PGS
Muxing mode : zlib
Codec ID : S_HDMV/PGS
Codec ID/Info : Picture based subtitle format used on BDs/HD-DVDs
Duration : 1 h 33 min
Bit rate : 55.1 kb/s
Count of elements : 3236
Stream size : 36.8 MiB (0%)
Title : English-PGS
Language : English
Default : Yes
Forced : No

Text #2
ID : 6
Format : PGS
Muxing mode : zlib
Codec ID : S_HDMV/PGS
Codec ID/Info : Picture based subtitle format used on BDs/HD-DVDs
Duration : 1 h 28 min
Bit rate : 46.2 kb/s
Count of elements : 2654
Stream size : 29.1 MiB (0%)
Title : Spanish-PGS
Language : Spanish
Default : No
Forced : No





Download:


Treść widoczna tylko dla użytkowników forum DarkMachine. Zaloguj się lub załóż darmowe konto na forum aby uzyskać dostęp bez limitów.



Motylek jest teraz aktywny  
Słowa kluczowe związane z tematem Lady Bird (2017): Lady Bird (2017) download, Lady Bird (2017) peb, Lady Bird (2017) do pobrania, Lady Bird (2017) chomikuj, Lady Bird (2017) za darmo, Lady Bird (2017) precyl, Lady Bird (2017) do ściągnięcia, Lady Bird (2017) free, Lady Bird (2017) darkwarez, Lady Bird (2017) rar, Lady Bird (2017) filestube, Lady Bird (2017) warez, Lady Bird (2017) portal, Lady Bird (2017) bez płacenia, Lady Bird (2017) elitewarez, Lady Bird (2017) no limits, Lady Bird (2017) bez premium, Lady Bird (2017) bez limitów, Lady Bird (2017) bez konta premium

Podobne wątki do: Lady Bird (2017)
Wątek Autor wątku Forum Odpowiedzi Ostatni post / autor
Lady Bird (2017) rafi11a Napisy / Inne wersje językowe 15 25-02-2018 20:23
Lady Rizo - Indigo (2017) karmina Pozostałe gatunki 0 16-12-2017 18:09
Grey Lady (2017) rafi11a Filmy HD, DVD, Blu-Ray 0 27-06-2017 09:43
Grey Lady (2017) rafi11a Napisy / Inne wersje językowe 0 27-06-2017 09:37
Lady Gaga - Coachella (2017) babayHD Teledyski / Koncerty 0 05-06-2017 11:59

Narzędzia wątku


O nas
DarkMachine jest najlepszym i najstarszym forum wielotematycznym oraz forum młodzieżowym z nastawieniem na rozrywkę, rozmowy, wymianę doświadczeniami, download, pobieranie, ściąganie, wzajemną pomoc. Tylko u nas odnajdziesz wszystko czego potrzebujesz i szukasz w sieci - gry, programy, muzykę, filmy, seriale, książki, komiksy, audiobooki, torrenty, p2m. Na forum możesz też odnaleźć tematyczne działy przeznaczone do rozmów i rozwiązywania problemów naszych użytkowników.

Użytkownicy naszego serwisu wymieniają się plikami z hostingów: Rapidshare, Turbobit, Freakshare, Chomikuj, Bitshare, Uploading, Letitbit, Uploaded, Hotfile, Netload, Mediafire, 4shared, Zshare, FilePost, Depositfiles, Filefactory, Rapidgator, Hellshare, Hitfile, Extabit, Crocko, Ifile, ShareFlare, BayFiles, Jumbofiles, Vip-File, Share-Online, Uploadfloor, Oron, Fiberupload, Filevelocity, Filesonic, Megaupload, Megavideo, VideoBB, Putlocker, Ifilez, Fastshare ale to nie wszystkie hostingi z których korzystają nasi użytkownicy.

Tematyka forum może przypominać takie serwisy jak: forumowisko, peb, darkwarez, precyl, exsite, megawarez, zajefajna, uploaduj, elitewarez, ajo, piratebay, filestube, p2m.

Powered by vBulletin®
Copyright © DarkMachine.pl 2006 - 2015
Czasy w strefie GMT +1. Teraz jest 20:44.


Change forum language


Change forum style



BTC: 1HsAvx1joQNEYagXcR8mYNLKoLQDGDQZwN | LTC: Lbz4rJUrkKgAKveWEMGWArL2s8horbyN3o | PPC: PQiSxBo49kKzvQN3RAnUc3pqi1xRAXGsjh